[钢之炼金术师真人版]Fullmetal.Alchemist.2017.JAPANESE.720p.BluRay.x264-WiKi 5.0G

高清范儿 2018-5-15 839


◎译  名 钢之炼金术师/钢之炼金术师真人版
◎片  名 Fullmetal Alchemist
◎年  代 2017
◎国  家 日本
◎类  别 动作
◎语  言 日语
◎字  幕 简体中文/繁体中文/英文
◎IMDb评分 5.9/10 from 11794 users
◎IMDB链接 http://imdb.com/title/tt5607028/
◎蓝光高清 http://www.1080pdy.com
◎文件格式 x264 + AC3
◎视频尺寸 1280 x 544
◎文件大小 5.00 GiB
◎片  长 2 h 13 min
◎导  演 曾利文彦 Fumihiko Sori
◎主  演 山田凉介 Ry?suke Yamada
      本田翼 Tsubasa Honda
      藤冈靛 Tatsuo Dean Fujioka
      佐藤隆太 Ry?ta Sat?    
      大泉洋 Y? ?izumi
      松雪泰子 Yasuko Matsuyuki     


◎简  介
  艾尔利家孤苦伶仃的两兄弟爱德华和阿尔冯斯,始终无法从丧母之痛中走出来。为了重建母亲的笑容,兄弟俩居然大着胆子挑战炼金术中最大的禁忌——人体炼成术。然而他们的炼成术走向失败,并且这种法术拥有铁一般的规则,那就是实际操作者需要用自己身体的一部分作为等价交换。爱德华为此失去了左脚,而阿尔冯斯则丢失了身体。千钧一发时刻,爱德华自愿献出右手取回了弟弟正走向冥国的灵魂。从此之后,阿尔冯斯的生命便被封存在铠甲之中。苦难的人生刚刚开始,爱德华(山田凉介 饰)已经失去了太多重要的东西。为了找回弟弟(水石亚飞梦 饰)的身体,他装上钢制假肢的“机械铠甲”,成为这个国家中最年轻的钢之炼金术师。哥哥为了弟弟心甘情愿赴汤蹈火,弟弟则为了哥哥抱着必死的觉悟,全身心迎接各种挑战。兄弟俩拧成一股绳,行走在满布荆棘和凶险的残酷世间,而他们的最终目标就是,找到能让阿尔冯斯恢复本来面貌的贤者之石。在冒险的旅途中,他们邂逅了来自各地的朋友,也遭遇了怀着各种目的的对手。期间,他们还见到了神秘的人造人。震惊的事实不得不让二人深深思考,“人的生命究竟是什么?”漫长的旅途仿佛永无止境……


花 絮
.影片根据荒川弘超高人气漫画改编,该作品于2001—2010年期间连载,截至2017年11月,单行本全27卷累计销售量超过7 000万册,此前则推出两季TV动画和两部动画剧场版。

.本片在日本国内342块银幕上同时公映,首周初登场排名第一位,观众满意度排名第八位。首映前三天总共动员29.1万人入场观看,票房收入约为3.73亿日元。

.这部作品同时以2D、IMAX2D以及4DX三种版本放映,并于2017年10月作为开幕影片参加了第30届东京国际电影节,此外还预定在190多个国家和地区公映。

.担任服装设计职务的西园梨惠和为《钢之炼金术师》动画版配音的声优朴璐美是好朋友。当朴璐美从他人那里得知该作品拍真人版的消息后非常高兴,把自己的漫画借给了梨惠作为服装设计的参考。

.为了再现16世纪的欧洲风情,剧组全员奔赴意大利取景。《角斗士》和《暮光之城》的取景地以及作为世界遗产的佛罗伦萨均在本片中出现,此外还与意大利国铁合作,启用了一百年前的火车参与拍摄。

.导演曾利文彦曾拍摄过《乒乓》《女座头市》和《明日之丈》等电影,他主要从事CG制作,1996年赴美学习,在学期间参与了《泰坦尼克号》CG制作团队,导演期间尤其注重CG品质的打磨和提升。

.导演在最初接到拍摄请求时曾反问“我来拍没关系吗?”事后想“如果我拒绝的话,那这些角色交给谁我都不甘心。我必须全力以赴。”该片前期拍摄以及后期CG制作各用了一年时间。

.片中的阿尔冯斯全部采用CG制作,而他的饰演者水石亚飞梦则是从一百多名应征者中脱颖而出的。亚飞梦此前有过电视剧、电影和舞台剧的表演经验,导演认为该演员和山田凉介的风格十分合拍

.曾利文彦曾被原作死粉诘难,“为什么不选欧美人来演?”“为什么不用钉宫理惠配音?”对第一个问题,导演回答“因为是日本人创作的故事,即使发生在欧洲,但核心部分只有日本人才能表现出来。”

.针对第二个问题,导演这样解释,“钉宫理惠和朴璐美是一对黄金搭档,让她和山田凉介搭档的话就会失去平衡。而且启用新的演员去演绎这对兄弟俩,也是为了和动画版区分开来。”

.大泉洋以特别出演的身份饰演了拥有“缀命之炼金术师”之称的国家炼金术师修·塔克,另外还有另一部他担任主演的影片在同一天上映,即《泡吧侦探3》。

.山田凉介和动画版声优朴璐美通过这部作品相识,他们经常在一起讨论剧情和人物角色。另外,山田还从作者荒川弘老师那里获得了一张原画作为奖赏和鼓励。

.为了培养“青梅竹马”的感觉,山田凉介在第一次见到本田翼就敞开心扉,说自己经常一个人吃饭、打电动。熟稔后,模特出身的本田翼会毫无顾忌拿山田身高开玩笑,比如“小小的身体里藏极大热情。”

.在屋顶跳跃追逐一场戏导演自认为最难拍摄,这场戏全部CG完成,不过剧组还是制作了25米高的道具布景,而山田凉介要求要从7米高的地方跳下来。山田拒绝替身和排练,一次拍摄完成。

Video
ID : 1
Format : AVC
Format/Info : Advanced Video Codec
Format profile : High@L4.1
Format settings : CABAC / 12 Ref Frames
Format settings, CABAC : Yes
Format settings, ReFrames : 12 frames
Codec ID : V_MPEG4/ISO/AVC
Duration : 2 h 13 min
Bit rate : 4 710 kb/s
Width : 1 280 pixels
Height : 544 pixels
Display aspect ratio : 2.35:1
Frame rate mode : Constant
Frame rate : 23.976 (24000/1001) FPS
Color space : YUV
Chroma subsampling : 4:2:0
Bit depth : 8 bits
Scan type : Progressive
Bits/(Pixel*Frame) : 0.282
Stream size : 4.40 GiB (88%)
Writing library : x264 core 129 r2245+704+36 8e61944 tMod+MixAQ [8-bit@4:2:0 X86_64]
Encoding settings : cabac=1 / ref=12 / deblock=1:-3:-3 / analyse=0x3:0x133 / me=umh / subme=11 / psy=1 / fade_compensate=0.00 / psy_rd=1.05:0.10 / mixed_ref=1 / me_range=32 / chroma_me=1 / trellis=2 / 8x8dct=1 / cqm=0 / deadzone=21,11 / fast_pskip=0 / chroma_qp_offset=-3 / threads=18 / lookahead_threads=3 / sliced_threads=0 / nr=0 / decimate=0 / interlaced=0 / bluray_compat=0 / constrained_intra=0 / fgo=0 / bframes=10 / b_pyramid=2 / b_adapt=2 / b_bias=0 / direct=3 / weightb=1 / open_gop=0 / weightp=2 / keyint=250 / keyint_min=24 / scenecut=40 / intra_refresh=0 / rc=2pass / mbtree=0 / bitrate=4710 / ratetol=1.0 / qcomp=0.70 / qpmin=0 / qpmax=69 / qpstep=4 / cplxblur=20.0 / qblur=0.5 / ip_ratio=1.40 / pb_ratio=1.30 / aq=1 / aq-strength=0.90 / aq-sensitivity=10.00 / aq-ifactor=1.00 / aq-pfactor=1.00 / aq-bfactor=1.00 / aq2=0
Language : Japanese
Default : Yes
Forced : No

Audio
ID : 2
Format : AC-3
Format/Info : Audio Coding 3
Codec ID : A_AC3
Duration : 2 h 13 min
Bit rate mode : Constant
Bit rate : 640 kb/s
Channel(s) : 6 channels
Channel positions : Front: L C R, Side: L R, LFE
Sampling rate : 48.0 kHz
Frame rate : 31.250 FPS (1536 SPF)
Bit depth : 16 bits
Compression mode : Lossy
Stream size : 612 MiB (12%)
Language : Japanese
Service kind : Complete Main
Default : Yes
Forced : No

Text #1
ID : 3
Format : UTF-8
Codec ID : S_TEXT/UTF8
Codec ID/Info : UTF-8 Plain Text
Duration : 2 h 6 min
Bit rate : 27 b/s
Count of elements : 1220
Stream size : 25.3 KiB (0%)
Title : English
Language : English
Default : Yes
Forced : Yes

Text #2
ID : 4
Format : UTF-8
Codec ID : S_TEXT/UTF8
Codec ID/Info : UTF-8 Plain Text
Duration : 2 h 6 min
Bit rate : 26 b/s
Count of elements : 1228
Stream size : 24.7 KiB (0%)
Title : Simplified
Language : Chinese
Default : No
Forced : No

Text #3
ID : 5
Format : UTF-8
Codec ID : S_TEXT/UTF8
Codec ID/Info : UTF-8 Plain Text
Duration : 2 h 6 min
Bit rate : 32 b/s
Count of elements : 1228
Stream size : 29.8 KiB (0%)
Title : Traditional
Language : Chinese
Default : No
Forced : No








附件: 9708



上传的附件:
最新回复 (6)
返回
发新帖