[JOJO的奇妙冒险 不灭钻石]2017.1080p.BluRay.x264.DTS-WiKi 内封中字/13.4GB

高清范儿 2018-4-10 389


◎译  名 JOJO的奇妙冒险 不灭钻石/东方仗助-浪漫伝奇-深红の秘伝说―/JOJO的奇妙冒险 TV版 第四季
◎片  名 ジョジョの奇妙な冒険 ダイヤモンドは砕けない
◎年  代 2016
◎产  地 日本
◎类  别 剧情/动作/动画/奇幻
◎语  言 日语
◎上映日期 2016-04-01(日本)
◎蓝光高清 http://www.1080pdy.com
◎集  数 39
◎片  长 24分钟
◎导  演 津田尚克 / 加藤敏幸 Toshiyuki Kato
◎主  演 小野友树 Yuuki Ono
      梶裕贵 Yki Kaji
      高木涉 Wataru Takagi
      樱井孝宏 Takahiro Sakurai
      小野大辅 Daisuke Ono
      森川智之 Toshiyuki Morikawa
      能登麻美子 Mamiko Noto
      川岛得爱 Tokuyoshi Kawashima
      志村知幸
      石冢运升 Unsh Ishizuka
      丰口惠美 Megumi Toyoguchi
      大川透 Tru kawa
      森久保祥太郎 Shotaro Morikubo
      原纱友里 Sayuri Hara
      山口胜平 Kappei Yamaguchi
      大原沙耶香 Sayaka Ohara
      嶋村侑 Yu Shimamura
      佐藤利奈 Rina Satou
      千叶繁 Shigeru Chiba
      坂本千夏 Chika Sakamoto
      加濑康之 Yasuyuki Kase
      谷山纪章 Kish Taniyama
      远近孝一 Kichi Tchika
      伊藤静 Shizuka Ito
      河西健吾 Kengo Kawanishi
      石井真 Makoto Ishii
      鹤冈聪 Satoshi Tsuruoka
      下和田裕贵
      滨田贤二 Kenji Hamada
      川田妙子
      宝龟克寿 Katsuhisa Hki
      楠见尚己


◎简  介
  为了寻找外公乔瑟夫的私生子,空条承太郎(小野大辅 配音)来到了杜王町,名为东方仗助(小野友树 配音)的高中一年级男生正是空条承太郎要寻找的人,让承太郎没有想到的是,东方仗助拥有着和自己一样的“替身”能力。

  身材矮小但拥有强大意志力的广濑康一(梶裕贵 配音),大脑一根筋但对待朋友忠诚不二的虹村亿泰(高木涉 配音),自大而又偏执的人气漫画家岸边露伴(樱井孝宏 配音),围绕在东方仗助身边的,是这些有趣而又强大的朋友和队友们,与此同时,越来越多的替身使者亦接连浮出水面。当罪恶的魔爪伸向杜王町之时,东方仗助愿意以自己的生命为代价,保护这片他热爱的土地。

Video
ID : 1
Format : AVC
Format/Info : Advanced Video Codec
Format profile : High@L4.1
Format settings : CABAC / 5 Ref Frames
Format settings, CABAC : Yes
Format settings, ReFrames : 5 frames
Codec ID : V_MPEG4/ISO/AVC
Duration : 1 h 59 min
Bit rate : 14.3 Mb/s
Width : 1 920 pixels
Height : 806 pixels
Display aspect ratio : 2.40:1
Frame rate mode : Constant
Frame rate : 23.976 (24000/1001) FPS
Color space : YUV
Chroma subsampling : 4:2:0
Bit depth : 8 bits
Scan type : Progressive
Bits/(Pixel*Frame) : 0.385
Stream size : 11.9 GiB (89%)
Writing library : x264 core 142 r2431+42 c69a006 tMod [8-bit@all X86_64]
Encoding settings : cabac=1 / ref=5 / deblock=1:-3:-3 / analyse=0x3:0x133 / me=umh / subme=11 / psy=1 / fade_compensate=0.00 / psy_rd=1.05:0.15 / mixed_ref=1 / me_range=64 / chroma_me=1 / trellis=2 / 8x8dct=1 / cqm=0 / deadzone=21,11 / fast_pskip=0 / chroma_qp_offset=-1 / threads=12 / lookahead_threads=3 / sliced_threads=0 / nr=0 / decimate=0 / interlaced=0 / bluray_compat=0 / constrained_intra=0 / fgo=0 / bframes=10 / b_pyramid=2 / b_adapt=2 / b_bias=0 / direct=3 / weightb=1 / open_gop=0 / weightp=2 / keyint=250 / keyint_min=23 / scenecut=40 / intra_refresh=0 / rc_lookahead=100 / rc=crf / mbtree=0 / crf=15.5000 / qcomp=0.75 / qpmin=0:0:0 / qpmax=69:69:69 / qpstep=4 / vbv_maxrate=50000 / vbv_bufsize=50000 / crf_max=0.0 / nal_hrd=none / filler=0 / ip_ratio=1.40 / pb_ratio=1.30 / aq=1:0.85 / aq-sensitivity=10.00 / aq-factor=1.00:1.00:1.00 / aq2=0 / aq3=0
Language : Japanese
Default : Yes
Forced : No

Audio
ID : 2
Format : DTS
Format/Info : Digital Theater Systems
Codec ID : A_DTS
Duration : 1 h 59 min
Bit rate mode : Constant
Bit rate : 1 509 kb/s
Channel(s) : 6 channels
Channel positions : Front: L C R, Side: L R, LFE
Sampling rate : 48.0 kHz
Frame rate : 93.750 FPS (512 SPF)
Bit depth : 24 bits
Compression mode : Lossy
Stream size : 1.25 GiB (9%)
Language : Japanese
Default : Yes
Forced : No

Text
ID : 3
Format : ASS
Codec ID : S_TEXT/ASS
Codec ID/Info : Advanced Sub Station Alpha
Compression mode : Lossless
Language : Chinese
Default : No
Forced : No




附件: 8438



上传的附件:
最新回复 (4)
  • daydayup 12月前
    2
    .................
  • nbylwb 6月前
    3
    小时候看过漫画的,真人版不知道好不好看
  • nbylwb 6月前
    4
    小时候看过漫画的,真人版不知道好不好看
  • hikarukeigo 1月前
    5
    真人版不知道能不能拍出水準
返回
发新帖