请选择 进入手机版 | 继续访问电脑版

1080P蓝光影视

 找回密码
 立即注册
查看: 817|回复: 2

[记录] 神偷奶爸3【大陆公映版/1080p/国英双语】 中文(内嵌) 3.88G

[复制链接]
发表于 2017-11-12 21:37:16 | 显示全部楼层 |阅读模式
! u5 h+ B% I/ Y# m  x

, g* j" n7 A% d& ~9 X) U◎译  名 神偷奶爸3/卑鄙的我3/坏蛋奖门人3(港)/神偷奶爸3之小小兵 9 |& v# e2 Z! X
◎片  名 Despicable Me 3 : w& \8 t! a/ i* ^: l* ^
◎年  代 2017
8 F1 u+ t0 k$ J- b◎产  地 美国
7 L# x6 {6 C$ U  [4 y◎类  别 喜剧/动画/冒险
0 Z8 x3 Z. S7 Y◎语  言   国语/英语   j8 C9 S3 h3 ]+ d
◎上映日期 2017-06-14(安锡动画电影节)/2017-06-30(美国)/2017-07-07(中国大陆) ( A- V4 u, h. {2 X9 h
◎IMDb评分  6.3/10 from 37,021 users 4 d- Q( Z# W; n3 z+ G
◎IMDb链接  http://www.imdb.com/title/tt3469046/ 4 N  z) w9 _- k; @6 a6 ^
◎豆瓣评分 6.9/10 from 95,783 users ! j: A* z4 S  y% v) e& v" N
◎豆瓣链接   https://movie.douban.com/subject/25812712/ ; |2 H" B/ e9 F6 m9 ~* s. s2 F
◎片  长 90分钟
9 I& ^$ b# |( w  d◎导  演 凯尔·巴尔达 Kyle Balda / 皮艾尔·柯芬 Pierre Coffin / 埃里克·吉伦 Eric Guillon 9 c' A9 t- k  `, q
◎主  演 史蒂夫·卡瑞尔 Steve Carell
1 q: s; A' S* [8 I6 Z克里斯汀·韦格 Kristen Wiig
6 ]" @. G9 ^6 w9 y& X- V5 @崔·帕克 Trey Parker ) Z# M' ^% A. W
米兰达·卡斯格拉夫 Miranda Cosgrove 9 u. L$ p; b) a6 o) M9 M% \( w
达纳·盖尔 Dana Gaier
" @" e3 X$ A& E4 {; H内芙·沙雷尔 Nev Scharrel
! Y1 I- x6 A9 c1 g* W" y& y/ M" h皮艾尔·柯芬 Pierre Coffin ' y* |; L4 W' y( w7 u
史蒂夫·库根 Steve Coogan 7 q/ K4 R* w& w! L6 R: ?* ]" l
朱莉·安德鲁斯 Julie Andrews
% v" y4 O6 K  c' o: a9 v珍妮·斯蕾特 Jenny Slate / `$ Q( d; _& U, b6 _
迈克尔·贝亚蒂 Michael Beattie
2 m+ J, }. _, r8 Z4 p& R! R安迪·尼曼 Andy Nyman 1 p. i2 _5 R8 M
阿德里安·奇斯卡托 Adrian Ciscato 0 ]) N% B5 R4 a* F+ `4 _/ A/ Y+ [
布莱恩·T·德莱尼 Brian T. Delaney 9 B& A8 ^/ [' Q5 i7 x
肯·道里欧 Ken Daurio
# a8 P% ?* W8 C1 {
+ N4 K7 e( k7 H; }◎简  介 % u+ X4 P. T2 j( }" d" \4 G
, `1 z2 x; w, N. m/ y5 M: K
     《神偷奶爸3》将延续前两部的温馨、搞笑风格,聚焦格鲁和露西的婚后生活,继续讲述格鲁和三个女儿的爆笑故事。“恶棍”奶爸格鲁将会如何对付大反派巴萨扎·布莱德,调皮可爱的小黄人们又会如何耍贱卖萌,无疑让全球观众万分期待。该片配音也最大程度沿用前作阵容,史蒂夫·卡瑞尔继续为男主角格鲁配音,皮埃尔·柯芬也将继续为经典角色小黄人配音,而新角色巴萨扎·布莱德则由《南方公园》主创元老崔·帕克为其配音。 : d2 Y: m2 s1 [2 @7 D/ u7 f  I

( i; c, ?* X. E6 r/ g7 y
General
6 w' y% c) b8 _2 tFormat                         : Matroska
  W9 N5 K7 G( n8 r+ T, v2 N/ `9 I7 V8 xFormat version                 : Version 4 / Version 2
- j2 c3 n/ V: PFile size                      : 3.88 GiB
" _4 g- d" u7 A- V% ?Duration                       : 1 h 29 min
7 G6 ^+ H+ D+ z* pOverall bit rate               : 6 190 kb/s
' j; W! E/ ^- _  M2 \Encoded date                   : UTC 2017-10-08 03:47:39 ' x9 S0 g" k& J& H1 e
Writing application            : mkvmerge v7.1.0 ('Good Love') 32bit built on Jul 27 2014 12:59:18
$ g+ @' J: _0 n3 b6 y1 {5 |7 VWriting library                : libebml v1.3.0 + libmatroska v1.4.1
* ^4 c7 a5 f' F- u) |8 P: Z
# r4 q" N3 q( \Video 2 @1 ^& H/ C. W8 P" o9 w& x5 `! D: Q8 u  O
ID                             : 1 4 D5 N$ R' Z$ D& G( p$ f) c: B; s
Format                         : AVC
  T  X" D. I; G6 W% ~9 R0 \Format/Info                    : Advanced Video Codec   R  A3 w2 H  |! u- w; ?
Format profile                 : High@L4 5 ^4 ~1 m7 b2 `( P8 V
Format settings, CABAC         : Yes " s5 {5 n9 U, N  c0 h8 [
Format settings, ReFrames      : 4 frames
8 f1 N3 b! J2 r$ sCodec ID                       : V_MPEG4/ISO/AVC & s* a# R0 |/ |/ Q& s( \
Duration                       : 1 h 29 min & u: V1 K! n& ]  u0 G/ z
Bit rate                       : 6 000 kb/s   k( A! J7 M/ U/ K
Width                          : 1 920 pixels
' |6 x  A# ]# L  h% vHeight                         : 1 080 pixels 3 N. @0 o$ @0 C9 k& D
Display aspect ratio           : 16:9 & L% }4 j, k; P9 A: h# K
Frame rate mode                : Constant
( L2 O; l/ f$ D5 x+ O* Z- C4 lFrame rate                     : 23.976 (24000/1001) FPS
$ k9 @& H/ z- ~Color space                    : YUV
! W4 f, W( U% YChroma subsampling             : 4:2:0
! X) F3 @7 P6 K5 k- ZBit depth                      : 8 bits
- g& y* c$ c3 _8 f0 X+ v* bScan type                      : Progressive
3 V# E, Z4 p7 _0 ^# iBits/(Pixel*Frame)             : 0.121 4 I9 W  I9 `+ |9 F. q- \$ F* O+ x' C& c
Stream size                    : 3.64 GiB (94%)
3 [* i. [, o; C2 TWriting library                : x264()-core 129 - H.264/MPEG-4
! ]7 g$ a& L& @; P+ UDefault                        : Yes
/ D! c; s2 T: ]7 R8 [( jForced                         : No . X$ L( ?% s* C9 g6 x1 X# T( ?7 K" y
* P" D% g4 d+ @, y
Audio #1
9 f' V7 r3 O8 Q5 \( @0 |6 U2 a4 ~ID                             : 2 2 |' f$ j  Z! p$ U) k8 X
Format                         : AAC
2 t) S8 P" E& Q! T4 EFormat/Info                    : Advanced Audio Codec
2 Y" O3 @! o% [9 R: X5 r: B0 E+ vFormat profile                 : LC
3 S2 I$ N1 T+ S: h$ HCodec ID                       : A_AAC
8 P" {0 w& ?9 K5 M) u* T4 ]& lDuration                       : 1 h 29 min / N# I* e9 r- M, y: B" c
Bit rate                       : 192 kb/s 2 _5 ~6 h6 X4 g. J+ x- M* c
Channel(s)                     : 2 channels
4 W  b0 L/ a, {$ UChannel positions              : Front: L R 9 ?, O  j! t4 C2 s
Sampling rate                  : 44.1 kHz
' q$ C7 q5 g6 _+ v' vFrame rate                     : 43.066 FPS (1024 spf)
6 O8 v/ a( _" [& ~* \; uCompression mode               : Lossy
; _# p' e$ a, _9 OStream size                    : 122 MiB (3%) $ v. t9 J/ Z" ]' ~1 X4 C
Language                       : English " z2 T! m9 n% A- A- q
Default                        : Yes
% g5 Z4 e' L1 V% VForced                         : No
3 Q0 y% [2 p  _, A% b
! ?; b. v  ]+ h% _9 aAudio #2
6 c5 K, ~; C# G$ }% PID                             : 3
& k7 `8 N* r) ?! }8 V9 CFormat                         : AAC 6 `( d8 A3 k3 Y) e
Format/Info                    : Advanced Audio Codec 8 H! m  v& H- T3 R
Format profile                 : LC 7 D2 c0 C% _- G: @
Codec ID                       : A_AAC
: E- F! U( P$ `( PDuration                       : 1 h 29 min , F" }. _& R1 V1 x- x8 D
Bit rate                       : 192 kb/s
# U+ K. O! C# ]Channel(s)                     : 2 channels : T" {' a* j# Y) h. W6 u; |
Channel positions              : Front: L R , w4 s5 M. N8 n
Sampling rate                  : 44.1 kHz % A9 i6 K$ N) G. Z8 [& F2 o
Frame rate                     : 43.066 FPS (1024 spf)
- G6 |9 ^& |: N6 J, m% f! eCompression mode               : Lossy
, [) s* U. b+ p4 Q/ GStream size                    : 122 MiB (3%) 1 _. A- P" L$ I% l# F
Language                       : English
. K' S! P) c, ?  DDefault                        : No
0 h  \' ]/ B5 j0 t- j9 ZForced                         : No
6 `6 |8 l# V# {. Z% {
至尊捕鱼
发表于 2018-5-27 20:07:43 | 显示全部楼层
没有看到下载的地方呢
回复 支持 反对

使用道具 举报

发表于 2018-6-6 16:13:50 | 显示全部楼层
请问楼主,在哪下载呢?
回复 支持 反对

使用道具 举报

*滑动验证:
您需要登录后才可以回帖 登录 | 立即注册

本版积分规则

QQ|小黑屋|手机版|Archiver|1080P电影网高清下载 - 1080P蓝光影视  

GMT+8, 2018-6-20 23:43 , Processed in 0.103284 second(s), 25 queries .

Powered by Discuz! X3.2

© 2001-2013 Comsenz Inc.

快速回复 返回顶部 返回列表