请选择 进入手机版 | 继续访问电脑版

1080P蓝光影视

 找回密码
 立即注册
查看: 898|回复: 2

[记录] 神偷奶爸3【大陆公映版/1080p/国英双语】 中文(内嵌) 3.88G

[复制链接]
发表于 2017-11-12 21:37:16 | 显示全部楼层 |阅读模式

" A$ G0 O1 T% a$ q* P
: w- E& v9 a! m1 s/ z/ L' K◎译  名 神偷奶爸3/卑鄙的我3/坏蛋奖门人3(港)/神偷奶爸3之小小兵 1 b' U, v, N8 D+ _) [* q3 o
◎片  名 Despicable Me 3 # D* m7 H. F7 d9 |- W4 [; J
◎年  代 2017 + u: @' {: g) A- A" C
◎产  地 美国
$ n0 v. b" o2 {$ R# J+ t7 [1 I: ~1 f◎类  别 喜剧/动画/冒险
  E! N9 t7 y- l9 y- u* n/ ?+ H◎语  言   国语/英语
8 W+ }. I9 g1 D1 [& g& y◎上映日期 2017-06-14(安锡动画电影节)/2017-06-30(美国)/2017-07-07(中国大陆)
: m9 ~4 V% L5 R, k◎IMDb评分  6.3/10 from 37,021 users 7 S* V1 F' b2 K4 {) u/ S5 @4 I
◎IMDb链接  http://www.imdb.com/title/tt3469046/   R8 h/ B" f! ~; O
◎豆瓣评分 6.9/10 from 95,783 users
. U) C6 a  L# Z1 y% I- w◎豆瓣链接   https://movie.douban.com/subject/25812712/
" s" E) z! x5 X6 Q4 ~+ u◎片  长 90分钟 * T! }" ]2 B. W3 Y
◎导  演 凯尔·巴尔达 Kyle Balda / 皮艾尔·柯芬 Pierre Coffin / 埃里克·吉伦 Eric Guillon
' V7 A, s% \+ Z" ~◎主  演 史蒂夫·卡瑞尔 Steve Carell
6 U. r. Y9 L9 u( f) [克里斯汀·韦格 Kristen Wiig
3 o0 s% O# I% z6 l- h3 t崔·帕克 Trey Parker
" M; C8 u  m- o% L) L) z9 ]米兰达·卡斯格拉夫 Miranda Cosgrove
% ?- Z- r- |7 k: Z: x% k达纳·盖尔 Dana Gaier
1 E8 j& A4 X+ a: `内芙·沙雷尔 Nev Scharrel
" D1 d4 U) Z  ^4 g" H皮艾尔·柯芬 Pierre Coffin
4 }3 Q- ~: R. @3 r! A$ n史蒂夫·库根 Steve Coogan ! t6 @. a/ [- F- C6 `  D9 m) {
朱莉·安德鲁斯 Julie Andrews
6 m/ F- S+ p3 _. O. Z珍妮·斯蕾特 Jenny Slate 3 _. w; p6 u2 N  N
迈克尔·贝亚蒂 Michael Beattie
! e% P& u/ P! E安迪·尼曼 Andy Nyman   A5 X: D9 d; w+ f! }% y6 F; \
阿德里安·奇斯卡托 Adrian Ciscato ; ]% p0 U0 Q, P8 H' M; c# F+ H9 w; g, K
布莱恩·T·德莱尼 Brian T. Delaney 4 l: N+ E- m; V8 [0 Y8 k6 S2 I
肯·道里欧 Ken Daurio
* [# U! T& I! m, f" [4 L9 U" ?* h& c  ?! \4 H1 F) t7 K! i
◎简  介
: g* I& b; h3 }0 L: n, q! {
" W4 G4 g- h+ t9 H     《神偷奶爸3》将延续前两部的温馨、搞笑风格,聚焦格鲁和露西的婚后生活,继续讲述格鲁和三个女儿的爆笑故事。“恶棍”奶爸格鲁将会如何对付大反派巴萨扎·布莱德,调皮可爱的小黄人们又会如何耍贱卖萌,无疑让全球观众万分期待。该片配音也最大程度沿用前作阵容,史蒂夫·卡瑞尔继续为男主角格鲁配音,皮埃尔·柯芬也将继续为经典角色小黄人配音,而新角色巴萨扎·布莱德则由《南方公园》主创元老崔·帕克为其配音。 ) Y+ r/ @7 I! k8 _) ?% t
: P5 B( P: p7 }/ b
General 2 T6 U' E# \& z, l) u
Format                         : Matroska : Z$ ^/ H% g* `/ I; O! z
Format version                 : Version 4 / Version 2 : b7 i, P1 F( V1 f# I- J  P$ c
File size                      : 3.88 GiB ! D+ W: i, K  A" [7 L8 F, Q
Duration                       : 1 h 29 min
, p5 l" {1 e6 C% F" R7 qOverall bit rate               : 6 190 kb/s
0 v2 _* L6 E+ m! \5 I, |* @Encoded date                   : UTC 2017-10-08 03:47:39 1 T* N& P4 k0 q0 f" q, a
Writing application            : mkvmerge v7.1.0 ('Good Love') 32bit built on Jul 27 2014 12:59:18
1 p4 ~, B8 t  r) l! BWriting library                : libebml v1.3.0 + libmatroska v1.4.1 0 s& J6 b4 ~! S3 w

* s3 L) _! R, n  R# J* sVideo
6 t! p; L) T* r6 g1 U1 m- e4 FID                             : 1
! v1 C  ~& b: Q  b* K; C: ?1 S: xFormat                         : AVC
& P& ?; j7 I! I+ s: y. qFormat/Info                    : Advanced Video Codec - l; j: n% W! k) `4 k/ C& f9 |, q
Format profile                 : High@L4 2 l' \6 \! ^/ c( q% E
Format settings, CABAC         : Yes % B1 |/ x: x/ P9 X. [
Format settings, ReFrames      : 4 frames
6 @; @2 B, O% sCodec ID                       : V_MPEG4/ISO/AVC . d5 ^$ B1 _; d9 f1 L
Duration                       : 1 h 29 min
: U5 |2 Y" Q: Z- P7 k7 TBit rate                       : 6 000 kb/s 2 U2 [6 N$ g+ m8 E; ~
Width                          : 1 920 pixels 5 \  X  r& X- W" c* S
Height                         : 1 080 pixels . F, I" q! R) R
Display aspect ratio           : 16:9 & a2 z; ?2 y! g+ v3 M( C
Frame rate mode                : Constant
; U2 X0 t; r( W+ U; R. F! a2 z, ^- e# o) tFrame rate                     : 23.976 (24000/1001) FPS ) {0 i# j  R( m4 {4 ~* g2 Y
Color space                    : YUV
( }- K; _; r2 {5 ^& U, kChroma subsampling             : 4:2:0 ' z7 N  b; E) n& X
Bit depth                      : 8 bits
. T, H0 Q+ P$ C7 z6 y& XScan type                      : Progressive : H$ i0 j/ A, S5 L- o$ y
Bits/(Pixel*Frame)             : 0.121
+ G4 v' v, i/ U7 wStream size                    : 3.64 GiB (94%) ) [+ o7 {4 l4 n' @% m& ]* e
Writing library                : x264()-core 129 - H.264/MPEG-4
2 F8 k3 T% d! p6 x! w; h# ZDefault                        : Yes 0 u/ A: @; N$ b; N( r  f% B) V( ]
Forced                         : No
- U: i0 `; q5 x" O: L# G6 r
/ @7 [7 k% @$ [3 _5 e8 vAudio #1 + [# Y3 Q  G8 r2 P7 m
ID                             : 2
4 B% a( |1 X+ S! K3 o: l. B+ v+ PFormat                         : AAC 4 b. i1 t, k$ y! \- k
Format/Info                    : Advanced Audio Codec ) y* ?3 s0 Z5 B" d. J# b- V2 B
Format profile                 : LC
% e; x& J/ u7 U5 q+ A5 x0 ]Codec ID                       : A_AAC ' a) |5 e- X: e& z! N) a
Duration                       : 1 h 29 min
/ k4 e6 H% o! K" |1 c% D7 g2 eBit rate                       : 192 kb/s + s9 z& ~4 d1 g0 K
Channel(s)                     : 2 channels 5 g0 ?. R3 `* i& P8 K
Channel positions              : Front: L R
1 h( d6 Y% x: H! gSampling rate                  : 44.1 kHz
, @$ h: i1 P- ~0 {$ YFrame rate                     : 43.066 FPS (1024 spf)
7 H$ j/ A+ q  R& W: rCompression mode               : Lossy " @6 p1 {: u# l1 g
Stream size                    : 122 MiB (3%)
8 P9 P% q' ~- aLanguage                       : English
1 r" O8 a3 d2 N, jDefault                        : Yes
! v% c& I: p) L2 [2 }2 _Forced                         : No $ _" j* I9 i. N+ n5 M
) K1 f+ a0 t, Z+ q0 v6 L, m$ {
Audio #2
  y" G. w9 @- a0 B! n: l% qID                             : 3 ( W+ p& m( f: s
Format                         : AAC
7 b. G7 w* l! j9 |! {; fFormat/Info                    : Advanced Audio Codec
1 N4 G9 c  G4 i# P% rFormat profile                 : LC
$ E8 o4 r$ k4 n$ y6 u% qCodec ID                       : A_AAC " p( \, V. M; B; @5 \
Duration                       : 1 h 29 min : _# v9 w( T& S% Y) Z/ u; ^
Bit rate                       : 192 kb/s
1 V5 e% B5 v7 n" Z4 w" xChannel(s)                     : 2 channels
' L$ U. U  T, y$ u" v) AChannel positions              : Front: L R ; q: `: H& E0 Z% J4 Z7 B$ x, Y' t5 ?
Sampling rate                  : 44.1 kHz
( Z* b$ D" }0 UFrame rate                     : 43.066 FPS (1024 spf)
! N  O7 }" P6 q' JCompression mode               : Lossy
" B, Y  E0 J5 ~' TStream size                    : 122 MiB (3%) & e; X8 I: @* X/ E7 H8 {, X
Language                       : English $ `" A  B+ {3 V% \/ K
Default                        : No
: N7 e' C$ I8 X! @9 \Forced                         : No
' y% a# b" Z# O8 h
至尊捕鱼
发表于 2018-5-27 20:07:43 | 显示全部楼层
没有看到下载的地方呢
回复 支持 反对

使用道具 举报

发表于 2018-6-6 16:13:50 | 显示全部楼层
请问楼主,在哪下载呢?
回复 支持 反对

使用道具 举报

*滑动验证:
您需要登录后才可以回帖 登录 | 立即注册

本版积分规则

QQ|小黑屋|手机版|Archiver|1080P电影网高清下载 - 1080P蓝光影视  

GMT+8, 2018-9-22 04:19 , Processed in 0.114149 second(s), 23 queries .

Powered by Discuz! X3.2

© 2001-2013 Comsenz Inc.

快速回复 返回顶部 返回列表