请选择 进入手机版 | 继续访问电脑版

1080P蓝光影视

 找回密码
 立即注册
查看: 1014|回复: 3

[记录] 神偷奶爸3【大陆公映版/1080p/国英双语】 中文(内嵌) 3.88G

[复制链接]
发表于 2017-11-12 21:37:16 | 显示全部楼层 |阅读模式

) p) Q: G3 n; T1 H+ f, m! Q9 n
- j, m/ e( l; E6 U! ?◎译  名 神偷奶爸3/卑鄙的我3/坏蛋奖门人3(港)/神偷奶爸3之小小兵 7 {& m9 d/ Q& E0 S& J, F: v# C
◎片  名 Despicable Me 3
7 n, Q. R( j+ I" z◎年  代 2017 ; E5 a, k) t6 I3 C
◎产  地 美国 . ^% j) L& F- c: Y- u: A8 z
◎类  别 喜剧/动画/冒险 - E3 h. H/ C  Z7 X6 A& O
◎语  言   国语/英语 0 R) M" Y, A& x' S% ^/ i* [
◎上映日期 2017-06-14(安锡动画电影节)/2017-06-30(美国)/2017-07-07(中国大陆)
5 w3 z1 R4 E3 p# y4 I( y0 q◎IMDb评分  6.3/10 from 37,021 users
9 a- a* B2 `* n- w1 E◎IMDb链接  http://www.imdb.com/title/tt3469046/
4 r9 l$ H! k5 q; Y◎豆瓣评分 6.9/10 from 95,783 users
( Z. `  ?( g# ~: ^6 C9 L( d* \, J- v6 o◎豆瓣链接   https://movie.douban.com/subject/25812712/ " C% p' s# I& v7 U( D$ V' y
◎片  长 90分钟
5 m' p- y; I& q◎导  演 凯尔·巴尔达 Kyle Balda / 皮艾尔·柯芬 Pierre Coffin / 埃里克·吉伦 Eric Guillon ) `2 H  n1 w. j5 B* J, N% _
◎主  演 史蒂夫·卡瑞尔 Steve Carell
9 Y$ Q: G" C4 t) r3 I8 ~% e克里斯汀·韦格 Kristen Wiig * s# T3 |* w0 j5 B
崔·帕克 Trey Parker
$ t8 L- b* V% @+ @7 _0 Y米兰达·卡斯格拉夫 Miranda Cosgrove
0 C* v2 Z! e; }' h+ u: _达纳·盖尔 Dana Gaier
; D- e, K! w$ m1 g% t4 A内芙·沙雷尔 Nev Scharrel
# g+ _$ Q. k+ r3 p3 i  o皮艾尔·柯芬 Pierre Coffin ! M1 s! n: e) ?2 G5 s
史蒂夫·库根 Steve Coogan ( N! [2 f2 `: k  ?6 F0 T' Q0 g
朱莉·安德鲁斯 Julie Andrews
, p. j; v0 e5 ^, m, x7 D$ K/ p珍妮·斯蕾特 Jenny Slate ! x- q# K; p+ Q% f6 j
迈克尔·贝亚蒂 Michael Beattie 3 ?( o1 {" O, Z# s6 L3 Z
安迪·尼曼 Andy Nyman & [' S! A' t  Y2 P6 u# u& h
阿德里安·奇斯卡托 Adrian Ciscato
9 M( Q7 m6 l/ `+ R5 l" `布莱恩·T·德莱尼 Brian T. Delaney % F# [# |) L9 M' q4 C8 H
肯·道里欧 Ken Daurio
4 h7 N7 a8 f8 t1 W* B+ \# I% [+ X% m8 h! L+ i% j
◎简  介 - a/ Y* x  k2 k) x6 g- e$ A

; P9 X$ b, Y4 M1 L* e1 ^/ I+ K     《神偷奶爸3》将延续前两部的温馨、搞笑风格,聚焦格鲁和露西的婚后生活,继续讲述格鲁和三个女儿的爆笑故事。“恶棍”奶爸格鲁将会如何对付大反派巴萨扎·布莱德,调皮可爱的小黄人们又会如何耍贱卖萌,无疑让全球观众万分期待。该片配音也最大程度沿用前作阵容,史蒂夫·卡瑞尔继续为男主角格鲁配音,皮埃尔·柯芬也将继续为经典角色小黄人配音,而新角色巴萨扎·布莱德则由《南方公园》主创元老崔·帕克为其配音。 ; D# y# f5 w: v
" B2 i& y- N# y. y% h& F* J
General
# P3 [2 A$ ^, P( q4 }& HFormat                         : Matroska ) Q; C# f. Z  p2 c( L
Format version                 : Version 4 / Version 2 # u8 a9 X$ ]* o5 @
File size                      : 3.88 GiB
) Z2 }$ e8 i" K/ Y+ r7 mDuration                       : 1 h 29 min
5 Q* Y1 i& J# ?" p1 s/ MOverall bit rate               : 6 190 kb/s
: _- S0 C! H" Y& s# Z) [7 WEncoded date                   : UTC 2017-10-08 03:47:39
6 B9 O0 G$ F6 w3 {3 RWriting application            : mkvmerge v7.1.0 ('Good Love') 32bit built on Jul 27 2014 12:59:18
& ^2 a8 l5 b6 r7 gWriting library                : libebml v1.3.0 + libmatroska v1.4.1
/ _# L3 W" o- d" H5 _8 k+ @; J1 e
7 L% C+ t* Y; o) _9 PVideo / ]  E7 v; e* u
ID                             : 1
: v. C. i  C+ G+ PFormat                         : AVC
0 c9 s" }8 ^, G2 z' P4 O% y& q; eFormat/Info                    : Advanced Video Codec 3 q+ v" L' T- {! K8 O* J
Format profile                 : High@L4
' ?( M$ v% g  u8 BFormat settings, CABAC         : Yes
1 m8 r" {. U0 e; vFormat settings, ReFrames      : 4 frames / w6 Z3 @' a& D$ W4 p! R
Codec ID                       : V_MPEG4/ISO/AVC & n& E/ L0 A% a# h* g* f) o
Duration                       : 1 h 29 min
! J6 f& n: L; x6 \Bit rate                       : 6 000 kb/s , E. e  W/ |. h. {/ ~' h
Width                          : 1 920 pixels
: _2 z) y5 T5 c5 h/ s' C3 X% AHeight                         : 1 080 pixels
7 I# b4 A( N3 T3 |Display aspect ratio           : 16:9
9 I( |: A% F) b/ d- cFrame rate mode                : Constant
, b. ]" F9 I4 F. n+ Y. rFrame rate                     : 23.976 (24000/1001) FPS
9 c; D' o) s$ R  ]. ?" D5 uColor space                    : YUV : Q8 v. D5 c, P' w! Y0 i4 ]& t
Chroma subsampling             : 4:2:0 , b( L% l! b, @  R% h3 T
Bit depth                      : 8 bits
. G4 C" a# l, r* }: FScan type                      : Progressive
0 z! _+ \' r. jBits/(Pixel*Frame)             : 0.121
5 J; q8 M+ D' w% N7 N1 BStream size                    : 3.64 GiB (94%)
- N+ L# U! s1 fWriting library                : x264()-core 129 - H.264/MPEG-4
- w8 ^- d9 c; d3 K7 T" O( iDefault                        : Yes , N! V# H' |$ H
Forced                         : No 7 j* |! j% ?- C7 r: i8 a4 z% |$ y- B

9 \1 ~  e2 k+ J2 ^Audio #1 ; }; k& ?: o2 l1 C  x! s- A3 S
ID                             : 2
6 O) w; a3 @8 B# s2 C( d# F1 c) b# rFormat                         : AAC
- }$ f# t+ D# j3 ]9 V$ T3 gFormat/Info                    : Advanced Audio Codec
( S' K7 V+ m% v" j7 |7 lFormat profile                 : LC
3 N  I* j5 A8 x6 @Codec ID                       : A_AAC % |5 h* _9 j- X& G" B* q
Duration                       : 1 h 29 min
9 W* ?" M  b3 y$ B' o- jBit rate                       : 192 kb/s + N& [1 H! {9 z' Z. s+ S
Channel(s)                     : 2 channels 9 |- U1 K4 I2 Q6 Z
Channel positions              : Front: L R " M' K4 e- ]6 T" J  I+ Y
Sampling rate                  : 44.1 kHz
% f0 ~7 j$ x4 A$ w0 p5 iFrame rate                     : 43.066 FPS (1024 spf) " e* ?- p) e7 V; f) L* r6 M
Compression mode               : Lossy
- s( X3 ~* C! S- n  [( ?Stream size                    : 122 MiB (3%)
  y3 X$ W; m- G- ?0 ^0 F& {8 XLanguage                       : English 7 k2 q4 {. I, m# _6 m' p
Default                        : Yes 2 Y. Z$ }9 u, G) j6 r
Forced                         : No   q" x5 ?; l& h# h8 p& b' Q) n

( b: X6 B( o2 R! w9 fAudio #2
7 U, u' X) o; \1 p. UID                             : 3 1 m, |# ?; _+ Q
Format                         : AAC 5 Q$ m9 ~3 G+ c! C! [- T
Format/Info                    : Advanced Audio Codec ; O* ^' n0 P' @) [3 Y* l# z/ l
Format profile                 : LC
0 a6 g- _, F; |" {0 ^* B6 S/ qCodec ID                       : A_AAC - Q$ p" e( ~/ @2 ?7 b
Duration                       : 1 h 29 min 4 w; S  |! J* J# r
Bit rate                       : 192 kb/s
- S, b8 q. A% j2 k: ]Channel(s)                     : 2 channels 3 |7 h1 @: j* f
Channel positions              : Front: L R 5 Z" V5 m! S. Z; I% Q
Sampling rate                  : 44.1 kHz
" t, }! a1 V0 {) R- dFrame rate                     : 43.066 FPS (1024 spf)
0 z' v4 k9 i" }3 tCompression mode               : Lossy # ]& D* J( `. F0 Y  c3 `
Stream size                    : 122 MiB (3%)
9 j* E; z. c# p/ bLanguage                       : English
! F7 _# Q: `2 k) t$ T% o2 M2 xDefault                        : No
) r& R: C. k- D% Q! ^; d! k) VForced                         : No

% n& h2 Q$ B; f' o3 ?- `. d0 h
至尊捕鱼
发表于 2018-5-27 20:07:43 | 显示全部楼层
没有看到下载的地方呢
回复 支持 反对

使用道具 举报

发表于 2018-6-6 16:13:50 | 显示全部楼层
请问楼主,在哪下载呢?
回复 支持 反对

使用道具 举报

发表于 2018-10-13 23:42:54 | 显示全部楼层
let me see see
回复 支持 反对

使用道具 举报

*滑动验证:
您需要登录后才可以回帖 登录 | 立即注册

本版积分规则

QQ|小黑屋|手机版|Archiver|1080P电影网高清下载 - 1080P蓝光影视  

GMT+8, 2018-12-12 22:59 , Processed in 0.057967 second(s), 28 queries .

Powered by Discuz! X3.2

© 2001-2013 Comsenz Inc.

快速回复 返回顶部 返回列表