战狼2 Wolf.Warriors.Ⅱ.2017.4K.2160p.&1080p.WEB-DL.x264.AAC...

jackfxj 2017-11-12 52077

◎译  名 新战狼/新战死沙场 ◎片  名 战狼2
◎年  代 2017
◎产  地 中国大陆
◎类  别 动作
◎语  言 汉语普通话/英语
◎上映日期 2017-07-27(中国大陆)
◎IMDb评分 6.7/10 from 2,133 users
◎IMDb链接 http://www.imdb.com/title/tt7131870/
◎豆瓣评分 7.4/10 from 392,877 users
◎豆瓣链接 https://movie.douban.com/subject/26363254/
◎片  长 123分钟
◎导  演 吴京 Jacky Wu
◎主  演 吴京 Jacky Wu
弗兰克·格里罗 Frank Grillo
吴刚 Gang Wu
张翰 Han Zhang
卢靖姗 Celina Jade
丁海峰 Haifeng Ding
淳于珊珊 Shanshan Chunyu
余男 Nan Yu
于谦 Qian Yu
石兆琪 Zhaoqi Shi
海蒂·玛尼梅可 Heidi Moneymaker
奥列格·普鲁迪乌斯 Oleg Aleksandrovich Prudius
阿隆·汤尼 Aaron Toney
泰勒·哈里斯 Thayr Harris
勃小龙 Pierre Bourdaud
◎简  介
故事发生在非洲附近的大海上,主人公冷锋(吴京 饰)遭遇人生滑铁卢,被“开除军籍”,本想漂泊一生的他,正当他打算这么做的时候,一场突如其来的意外打破了他的计划,突然被卷入了一场非洲国家叛乱,本可以安全撤离,却因无法忘记曾经为军人的使命,孤身犯险冲回沦陷区,带领身陷屠杀中的同胞和难民,展开生死逃亡。随着斗争的持续,体内的狼性逐渐复苏,最终孤身闯入战乱区域,为同胞而战斗。
关于《战狼2》你应该知道的N件事
开场一段6分钟的水上水下一镜到底镜头,剧组整整拍了半个月。演员和摄影师更是要每天在水中泡超过10个小时。为了赶时间,吴京和工作人员都是直接在水里吃东西,补充能量。2为营造枪战真实感,吴京坚持使用真枪,但流程规范严格的美方团队考虑到安全问题曾不敢让他使用。3美国动作指导萨姆·哈格里夫透露,《战狼2》拍摄中爆点位置多,火力大,算下来炸了上百辆车,2辆20吨的等比例坦克模型和1架飞机模型。4第一次挑战没人玩过的坦克漂移,摄影师险些被坦克的炮筒“削头”。5吴刚第一次拍现代的战争戏,“拜师”吴京后进步飞速,成功完成了“单手换弹夹”。
[indent]General
Format : Matroska
Format version : Version 4 / Version 2
File size : 5.43 GiB
Duration : 2 h 3 min
Overall bit rate : 6 320 kb/s
Encoded date : UTC 2017-11-02 16:28:00
Writing application : mkvmerge v7.1.0 ('Good Love') 32bit built on Jul 27 2014 12:59:18
Writing library : libebml v1.3.0 + libmatroska v1.4.1

Video
ID : 1
Format : AVC
Format/Info : Advanced Video Codec
Format profile : High@L5.1
Format settings, CABAC : Yes
Format settings, ReFrames : 3 frames
Codec ID : V_MPEG4/ISO/AVC
Duration : 2 h 3 min
Bit rate : 6 255 kb/s
Width : 3 840 pixels
Height : 1 608 pixels
Display aspect ratio : 2.40:1
Frame rate mode : Constant
Frame rate : 24.000 FPS
Color space : YUV
Chroma subsampling : 4:2:0
Bit depth : 8 bits
Scan type : Progressive
Bits/(Pixel*Frame) : 0.042
Stream size : 5.38 GiB (99%)
Default : Yes
Forced : No
Color range : Limited
Color primaries : BT.709
Transfer characteristics : BT.709
Matrix coefficients : BT.709

Audio
ID : 2
Format : AAC
Format/Info : Advanced Audio Codec
Format profile : HE-AAC / LC
Codec ID : A_AAC
Duration : 2 h 3 min
Bit rate : 62.9 kb/s
Channel(s) : 2 channels
Channel positions : Front: L R
Sampling rate : 44.1 kHz / 22.05 kHz
Frame rate : 21.533 FPS (1024 spf)
Compression mode : Lossy
Stream size : 55.4 MiB (1%)
Default : Yes
Forced : No [/indent]

http://img5.mtime.cn/pi/2017/08/07/093909.55316268_1000X1000.jpg

https://i.imgur.com/oTiOoTT.jpg
https://i.imgur.com/lH9Pzqv.jpg

附件: 7228
附件: 7227


上传的附件:
最新回复 (73)
  • 13826258868 11月前
    2
    支持的点点滴滴多多多多
  • 745449197@qq.co 11月前
    3
    谢谢谢谢谢谢
  • binglingchen 11月前
    4
    不错,谢谢分享!
  • anson.qi 10月前
    5
    期待期待。。。
  • hmycchwd 10月前
    6
    谢谢啦在P20好,还是mate10pro好
  • carbbs2018 10月前
    7
    f非常感谢共享
  • wenyao 10月前
    8
    战狼,支持一下
  • aa871658671 10月前
    9
    很好 很强大
  • 10

    不错,谢谢分享!
  • wlxf003 10月前
    11
    666666666666666666
  • 水岸山人 10月前
    12
    谢谢楼主。
  • suichangyin 10月前
    13
    支持的点点滴滴多多多多测试一下
  • A20080107123 10月前
    14
    kkkkkkkkkkkkkkkkkkkkkkkkkkkkk
  • 38336433 10月前
    15
    支持楼主分享
  • Kasdae 10月前
    16
    {:2_25:}{:2_25:}{:2_25:}
  • fizzzy 10月前
    17
    我要看看。
  • feiger 9月前
    18
    谢谢楼主分享
  • scyymzg 9月前
    19
    支持的点点滴滴多多多多
  • yhhdtk 9月前
    20
    战狼2 Wolf.Warriors.Ⅱ.201
  • jhljxldh 9月前
    21
    谢谢楼主的分享,必须顶。
  • jinziyong 9月前
    22
    不错,谢谢分享!
  • 缅怀丶 9月前
    23
    这个电影我在电影院看了3次,真的是很过瘾呢
  • 美辐射造型 9月前
    24
    谢谢分享 谢谢
  • chktyy 9月前
    25
    ggggggggggggggg
  • jjh3031 9月前
    26
    谢谢分享这个片子
  • isunny1390 9月前
    27
    重新注册账号,感谢楼主分享!
  • Cc33123 9月前
    28
    vfgdbgdgdbcxb
  • yejiananzio 9月前
    29
    感谢楼主分享
  • chujian 9月前
    30
    得看看,THANKS
  • steel 9月前
    31
    难得有的片源,谢谢分享
  • 雨天等放晴 9月前
    32
    不错,谢谢分享!
  • scgy136781 9月前
    33
    看看是不是高清版的
  • 雨天等放晴 9月前
    34
    :curse:垃圾贴,骗人注册 注册了还是不给下载
  • 674843044 9月前
    35
    支持 谢谢
  • qianxg8888 9月前
    36
    henxiangkan
  • 叶枫 9月前
    37
    谢谢分享非常感谢
  • vick 9月前
    38
    谢谢,,好慢啊,
  • 260803415 9月前
    39
    谢谢资源 按算大叔大叔大叔
  • yuxirp 9月前
    40
    谢谢楼主无私分享
  • yuxirp 9月前
    41
    为什么我下载不了?用户组没有下载权限
  • xiaosuo860323 9月前
    42
    好电影要分享
  • 花卿贺 9月前
    43
    :victory:找了好久终于找到了
  • jy48822886 9月前
    44
    感谢分享,支持。支持!!!
  • 1145718659 9月前
    45
    haoyingshi 好影视,我i顶
  • 895923539 9月前
    46
    赞赞赞赞赞赞赞赞赞赞赞赞赞赞赞赞赞
  • 蜀之江 9月前
    47
    感谢楼主分享。
  • wsdbd_xp 9月前
    48
    66666666666666
  • w448611849 9月前
    49
    下载看一下
  • smokecamel 9月前
    50
    已经在电影院看过了,想在家再看一次,希望能顺利下载,谢谢楼主分享。
  • ke12994322 9月前
    51
    6666666666666666
  • skybearr 8月前
    52
    seeeeeeeeeeeeeeeeeeeeeeee
  • waq_5858 8月前
    53
    谢谢楼主分享,楼主辛苦了。
  • wwrwwt 8月前
    54
    谢谢楼主分享资源
  • SHW 8月前
    55
    不错,谢谢分享!
  • 黎明的火焰 8月前
    56
    谢谢提供者的资源,很喜欢的电影
  • lixue212 8月前
    57
    战狼,支持一下
  • zhbcb 8月前
    58

    不错,谢谢分享!
  • 兔眼看天下 8月前
    59
    好,收下了。
  • xyttatv 7月前
    60
    wolai kankan zhiliangzayang
  • xyttatv 7月前
    61
    希望不要让我失望
  • 857398452 7月前
    62
    ddddddddddddddddddddddddd
  • a3b6146 6月前
    63
    i yn 好像下发票赤
  • dengkeqiang1 6月前
    64
    kdl看到啦看到啦可说了说了几遍卡死了爱偶尔
  • 5945862 5月前
    65
    rtrfty5rtydhedtu
  • mordasikar 5月前
    66
    11111111111111111111111
  • mordasikar 5月前
    67
    666666666666666666666666666666666
  • hb3511 5月前
    68
    经典好片!值得收藏!
  • projectq 5月前
    69
    楼主用心了,内容非常精彩
  • projectq 5月前
    70
    楼主用心了,内容非常精彩
  • txjf 5月前
    71
    :handshake
  • qiang86 4月前
    72
    支持的点点滴滴多多多多
  • qilailei 4月前
    73
    非常好的电影
  • qiangyjq 4月前
    74
    谢谢分享!!!
返回
发新帖