请选择 进入手机版 | 继续访问电脑版

1080P蓝光影视

 找回密码
 立即注册
查看: 47974|回复: 67

[动作] 战狼2 Wolf.Warriors.Ⅱ.2017.4K.2160p.&1080p.WEB-DL.x264.AAC...

  [复制链接]
发表于 2017-11-12 19:20:49 | 显示全部楼层 |阅读模式
◎译  名 新战狼/新战死沙场 ◎片  名 战狼2
/ W$ i& B4 V: Z, z. c  U& v◎年  代 2017
4 p! W8 d) L9 c% {% g◎产  地 中国大陆
" n# O( e: V& b1 R1 f4 Q$ r: M6 o◎类  别 动作   N0 @$ I: [3 M4 p  k3 X. a. |
◎语  言 汉语普通话/英语 ) ?" Y4 u9 @1 W4 J
◎上映日期 2017-07-27(中国大陆) ' r& {4 r; n0 o' i( {
◎IMDb评分  6.7/10 from 2,133 users
/ S6 L2 z; ^' F: U. n◎IMDb链接  http://www.imdb.com/title/tt7131870/ 3 t* S; R9 v  l8 \5 A5 D6 s
◎豆瓣评分 7.4/10 from 392,877 users ! p6 l: g) E# X
◎豆瓣链接 https://movie.douban.com/subject/26363254/
' R: R# R4 i* b# I0 p9 D◎片  长 123分钟 1 k' Z1 p3 u! j" I. l5 i; R7 I
◎导  演 吴京 Jacky Wu 0 Z) g2 S; {4 @5 ]% T  o2 e
◎主  演 吴京 Jacky Wu
; ^- Q5 B( W/ u3 _" c% Z3 K4 e  M弗兰克·格里罗 Frank Grillo $ I% Y# D4 d4 L% z0 m. w( T
吴刚 Gang Wu
4 D2 J0 R3 B, c# u/ p5 o张翰 Han Zhang
9 ~& C0 w( _, x, [. j卢靖姗 Celina Jade ; T4 }. `  J4 v) b
丁海峰 Haifeng Ding 8 y- z8 l+ v: {% U1 r
淳于珊珊 Shanshan Chunyu
" X8 Q. B+ ~) @- Q余男 Nan Yu : ]( o  P* x; O1 l, \1 ]1 [6 {
于谦 Qian Yu " J; d2 e/ J6 R9 ^
石兆琪 Zhaoqi Shi , _2 W( y$ V9 E% y! i. ~( o0 b
海蒂·玛尼梅可 Heidi Moneymaker - q$ D  j7 c7 A' C9 f: _( w
奥列格·普鲁迪乌斯 Oleg Aleksandrovich Prudius $ }# F4 a4 o% L. l7 n: I  x' R
阿隆·汤尼 Aaron Toney " ~3 `6 B/ t, b7 f
泰勒·哈里斯 Thayr Harris
% o2 w! a5 @  G6 i) y: B勃小龙 Pierre Bourdaud
1 d% f- }3 \- `* m; M◎简  介
- b1 ^3 t# _9 O! E. V% \" h7 R       故事发生在非洲附近的大海上,主人公冷锋(吴京 饰)遭遇人生滑铁卢,被“开除军籍”,本想漂泊一生的他,正当他打算这么做的时候,一场突如其来的意外打破了他的计划,突然被卷入了一场非洲国家叛乱,本可以安全撤离,却因无法忘记曾经为军人的使命,孤身犯险冲回沦陷区,带领身陷屠杀中的同胞和难民,展开生死逃亡。随着斗争的持续,体内的狼性逐渐复苏,最终孤身闯入战乱区域,为同胞而战斗。
" \5 K" H( `( b  b关于《战狼2》你应该知道的N件事 * a, @/ u' f0 t/ n
      开场一段6分钟的水上水下一镜到底镜头,剧组整整拍了半个月。演员和摄影师更是要每天在水中泡超过10个小时。为了赶时间,吴京和工作人员都是直接在水里吃东西,补充能量。2为营造枪战真实感,吴京坚持使用真枪,但流程规范严格的美方团队考虑到安全问题曾不敢让他使用。3美国动作指导萨姆·哈格里夫透露,《战狼2》拍摄中爆点位置多,火力大,算下来炸了上百辆车,2辆20吨的等比例坦克模型和1架飞机模型。4第一次挑战没人玩过的坦克漂移,摄影师险些被坦克的炮筒“削头”。5吴刚第一次拍现代的战争戏,“拜师”吴京后进步飞速,成功完成了“单手换弹夹”。 3 R: l5 w( ~! C  t: y
General
4 g" D$ o* {% z- }! XFormat                         : Matroska
# E" K* x1 [, h: [1 wFormat version                 : Version 4 / Version 2
* a1 G4 M. E6 N  T; s+ c3 P; wFile size                      : 5.43 GiB
( O. m6 {2 [4 A. A- WDuration                       : 2 h 3 min
# l* e- h# ?7 E: XOverall bit rate               : 6 320 kb/s 0 R4 ?0 O4 B! F  @: _3 ]
Encoded date                   : UTC 2017-11-02 16:28:00
0 k9 x* K: t# n2 kWriting application            : mkvmerge v7.1.0 ('Good Love') 32bit built on Jul 27 2014 12:59:18 9 l' v5 v4 |$ N
Writing library                : libebml v1.3.0 + libmatroska v1.4.1
: C3 b( g* E1 n4 h' E# h. X
! A3 r% M. e; ~, W; wVideo
+ |8 W) ^7 E6 d% kID                             : 1
7 {8 `1 A5 P1 X# aFormat                         : AVC
! r' ~) Q; n1 t. ?: T" l& _Format/Info                    : Advanced Video Codec
3 c* G4 R. @- M7 `) n, ?* oFormat profile                 : High@L5.1 , D( r( O) \; H* w4 U
Format settings, CABAC         : Yes 3 X0 i/ `5 B) ~% @; {  I
Format settings, ReFrames      : 3 frames ! z) F: m3 L/ W# S' [) C( p: M
Codec ID                       : V_MPEG4/ISO/AVC ) B: o' ^2 o' @3 v- ^7 f
Duration                       : 2 h 3 min & w- J( I+ u4 x2 T1 |/ M
Bit rate                       : 6 255 kb/s $ n; |2 [; e# c% {9 t
Width                          : 3 840 pixels
4 r) n4 e6 u0 r9 yHeight                         : 1 608 pixels - U. e) N* G- m1 P9 ?0 N0 b& F8 A
Display aspect ratio           : 2.40:1   I$ `, h- f6 N. ]
Frame rate mode                : Constant
' O; f: M* p, m% JFrame rate                     : 24.000 FPS
$ o9 T5 G; _( Y& q4 f) c5 D2 l* |Color space                    : YUV 5 ~4 Z5 O$ a/ c! w- G
Chroma subsampling             : 4:2:0 - l  b' P3 i( E# m
Bit depth                      : 8 bits , d2 W5 G. |; Q, n- Q
Scan type                      : Progressive 6 F0 `0 F/ ~4 A9 x7 r
Bits/(Pixel*Frame)             : 0.042
* a% V- @6 t, {; K# S; TStream size                    : 5.38 GiB (99%)
. Q' g8 S" G. r+ L4 {Default                        : Yes 5 S* v+ v9 ~0 n) ?- d  \
Forced                         : No
  c, @( ]6 h3 P- W& v$ R+ ZColor range                    : Limited
# p; q0 k  B: k8 b9 ~. s& XColor primaries                : BT.709
8 T: x8 ]5 m. u  e( x9 KTransfer characteristics       : BT.709 * }: w# C. ]+ o  |; p% h
Matrix coefficients            : BT.709
6 U4 X" b! Z" |; ^9 t
6 t3 v9 f7 c6 ?0 gAudio
3 C& g1 w( u1 B0 T. iID                             : 2 ! u$ `3 c& j/ \& }
Format                         : AAC + U- D' T( A$ w) g, d* y
Format/Info                    : Advanced Audio Codec   R2 X& c) Q2 B
Format profile                 : HE-AAC / LC / I9 F. g" U- j
Codec ID                       : A_AAC 0 M; L; T/ s' s
Duration                       : 2 h 3 min
( X- d9 o/ _0 X3 s- g$ F9 {Bit rate                       : 62.9 kb/s
' U* t/ k3 [9 q( a9 HChannel(s)                     : 2 channels
+ u  t& b9 O# o. ?* s7 ]6 V# tChannel positions              : Front: L R
6 ]) ^  l+ m% z0 K& V6 G2 PSampling rate                  : 44.1 kHz / 22.05 kHz ' b: j$ D3 s# p) r& t: F
Frame rate                     : 21.533 FPS (1024 spf)
8 ~3 m2 O# F- f" f, ?4 i# BCompression mode               : Lossy
, u" \4 u# Q3 u2 C9 o# kStream size                    : 55.4 MiB (1%) ; {) H6 y( V1 j1 g4 I! q4 i2 G
Default                        : Yes
/ M+ R) [5 P- c8 xForced                         : No

% T; W, r6 h0 |8 X6 Z8 M' [% ~
* `. \( Q2 j* x( d2 {) {# l+ Z3 o/ u0 e
8 a! Y5 b: L4 P9 x* _0 T
  {5 |  [8 S' h6 d8 z- G
0 z" {( I! O* o% {
游客,如果您要查看本帖隐藏内容请回复

0 w7 ]% g, Q7 o3 a! Z, f
游客,如果您要查看本帖隐藏内容请回复

- X5 i/ c0 E& Y0 ~% R4 j# ]4 i: R  M4 Q  _$ b

) `$ M" t( D/ Q/ Q

本帖子中包含更多资源

您需要 登录 才可以下载或查看,没有帐号?立即注册

x

评分

参与人数 1金钱 +30 收起 理由
bored + 30 4k片源不错 点赞!

查看全部评分

至尊捕鱼
发表于 2018-4-18 13:29:44 | 显示全部楼层
支持的点点滴滴多多多多
回复 支持 反对

使用道具 举报

发表于 2018-4-20 17:17:42 | 显示全部楼层
谢谢谢谢谢谢
回复 支持 反对

使用道具 举报

发表于 2018-4-21 16:30:08 | 显示全部楼层
不错,谢谢分享!
回复 支持 反对

使用道具 举报

发表于 2018-4-25 10:41:38 | 显示全部楼层
谢谢啦在P20好,还是mate10pro好
回复 支持 反对

使用道具 举报

发表于 2018-4-29 01:26:05 | 显示全部楼层
f非常感谢共享
回复 支持 反对

使用道具 举报

发表于 2018-4-29 11:32:42 | 显示全部楼层
战狼,支持一下
回复 支持 反对

使用道具 举报

发表于 2018-5-2 20:56:40 | 显示全部楼层
很好 很强大
回复 支持 反对

使用道具 举报

发表于 2018-5-5 14:13:35 | 显示全部楼层
! T/ V2 R9 Q( c
不错,谢谢分享!
回复 支持 反对

使用道具 举报

发表于 2018-5-5 16:11:35 | 显示全部楼层
666666666666666666
回复 支持 反对

使用道具 举报

*滑动验证:
您需要登录后才可以回帖 登录 | 立即注册

本版积分规则

QQ|小黑屋|手机版|Archiver|1080P电影网高清下载 - 1080P蓝光影视  

GMT+8, 2018-9-23 01:39 , Processed in 0.088566 second(s), 28 queries .

Powered by Discuz! X3.2

© 2001-2013 Comsenz Inc.

快速回复 返回顶部 返回列表