请选择 进入手机版 | 继续访问电脑版

1080P蓝光影视

 找回密码
 立即注册
查看: 51778|回复: 73

[动作] 战狼2 Wolf.Warriors.Ⅱ.2017.4K.2160p.&1080p.WEB-DL.x264.AAC...

  [复制链接]
发表于 2017-11-12 19:20:49 | 显示全部楼层 |阅读模式
◎译  名 新战狼/新战死沙场 ◎片  名 战狼2 * Z% |# u# G/ [5 W
◎年  代 2017
. c" N3 }( P1 X8 o5 w◎产  地 中国大陆 ' a, s* m' k+ B
◎类  别 动作
; L% }, L4 e  N0 Q9 o◎语  言 汉语普通话/英语
4 V* e2 Q9 G* w5 a◎上映日期 2017-07-27(中国大陆)
& ]. V2 h# r3 C. w◎IMDb评分  6.7/10 from 2,133 users - e+ D5 f- `4 F6 q7 b% T
◎IMDb链接  http://www.imdb.com/title/tt7131870/ + M* b5 v1 W9 i3 C& P1 M
◎豆瓣评分 7.4/10 from 392,877 users # O& i  n- O  k  Y* b: o" ]
◎豆瓣链接 https://movie.douban.com/subject/26363254/ 3 C* d- ^, C5 n$ N& Z8 s4 _
◎片  长 123分钟
  N8 `0 ~( J  B# L7 v◎导  演 吴京 Jacky Wu 0 F" {+ \6 O& Z7 E( H
◎主  演 吴京 Jacky Wu ! G/ Q, H) G1 `! q4 v
弗兰克·格里罗 Frank Grillo
7 ~; S2 G5 P  V- ?  \1 B吴刚 Gang Wu 3 u- F- s4 Z8 v" T- c, M6 O
张翰 Han Zhang
, ?8 j- T' y  _8 W* Q# X7 o. t卢靖姗 Celina Jade
$ d/ l4 J* A, r% G6 r. T丁海峰 Haifeng Ding 1 v; ?2 K0 y1 c- U
淳于珊珊 Shanshan Chunyu
2 A5 ~' t" F( |# K9 g, g4 d余男 Nan Yu . s8 V0 U9 L- O& p$ z0 B
于谦 Qian Yu 0 c4 C% k4 A' h$ m: L
石兆琪 Zhaoqi Shi + C0 f* e* o% p
海蒂·玛尼梅可 Heidi Moneymaker 3 z# Q5 Y4 U9 Y# `
奥列格·普鲁迪乌斯 Oleg Aleksandrovich Prudius
2 T* E! I1 |1 B5 N7 f: D' R8 s阿隆·汤尼 Aaron Toney
% W5 }5 i* K+ @泰勒·哈里斯 Thayr Harris 5 H! N* m6 z) |; M/ P
勃小龙 Pierre Bourdaud 0 Z, Z) X9 f% R, ]) w* p0 |
◎简  介 - Y: L' W2 i5 l8 }
       故事发生在非洲附近的大海上,主人公冷锋(吴京 饰)遭遇人生滑铁卢,被“开除军籍”,本想漂泊一生的他,正当他打算这么做的时候,一场突如其来的意外打破了他的计划,突然被卷入了一场非洲国家叛乱,本可以安全撤离,却因无法忘记曾经为军人的使命,孤身犯险冲回沦陷区,带领身陷屠杀中的同胞和难民,展开生死逃亡。随着斗争的持续,体内的狼性逐渐复苏,最终孤身闯入战乱区域,为同胞而战斗。 ! A  t+ r! Z3 V, Z, |2 j
关于《战狼2》你应该知道的N件事
) F! I- h& N3 D1 h  A' n. T: q      开场一段6分钟的水上水下一镜到底镜头,剧组整整拍了半个月。演员和摄影师更是要每天在水中泡超过10个小时。为了赶时间,吴京和工作人员都是直接在水里吃东西,补充能量。2为营造枪战真实感,吴京坚持使用真枪,但流程规范严格的美方团队考虑到安全问题曾不敢让他使用。3美国动作指导萨姆·哈格里夫透露,《战狼2》拍摄中爆点位置多,火力大,算下来炸了上百辆车,2辆20吨的等比例坦克模型和1架飞机模型。4第一次挑战没人玩过的坦克漂移,摄影师险些被坦克的炮筒“削头”。5吴刚第一次拍现代的战争戏,“拜师”吴京后进步飞速,成功完成了“单手换弹夹”。
! X! q: `" i* R5 m' {
General
6 I% X$ @6 w: X4 p5 c2 }Format                         : Matroska # ]4 I9 b. {$ s+ _
Format version                 : Version 4 / Version 2
% l$ q4 @6 R" c" H, bFile size                      : 5.43 GiB
$ e/ M8 h+ s% B" b( R- _Duration                       : 2 h 3 min
% P& M% `0 s9 P1 ~& S3 pOverall bit rate               : 6 320 kb/s
% l! E8 Q3 v/ pEncoded date                   : UTC 2017-11-02 16:28:00 # K3 y8 G# ]4 Q( [% X
Writing application            : mkvmerge v7.1.0 ('Good Love') 32bit built on Jul 27 2014 12:59:18 - }7 I( Y6 ?1 H- r: @- _
Writing library                : libebml v1.3.0 + libmatroska v1.4.1 " c' m8 O; m  T' n6 K, F& c, r0 c
+ i" C$ p8 R% q  ~
Video
0 @' S; q. D: J( `* a+ ]ID                             : 1
4 ^' R8 |; q& k, D( |$ x, K( G8 V" tFormat                         : AVC - W# N) l+ Z6 f
Format/Info                    : Advanced Video Codec
( {! N, A6 L$ \7 b0 ?/ {/ \( YFormat profile                 : High@L5.1
, p, p9 j, m% ^; L4 B6 Q, \( N3 b# wFormat settings, CABAC         : Yes
" V+ u# k3 q$ @$ N4 a$ k; ?Format settings, ReFrames      : 3 frames . x/ Y) @& I2 F( B9 `* b# l+ ]
Codec ID                       : V_MPEG4/ISO/AVC
; y3 Q$ p& T7 C/ W" JDuration                       : 2 h 3 min 3 a& E3 I7 V. |# b/ B. g5 z: b
Bit rate                       : 6 255 kb/s
* }; ]8 W  P2 ]/ A+ |; `2 \Width                          : 3 840 pixels 2 H6 L; S( {4 x( B
Height                         : 1 608 pixels & H9 |7 s1 L7 J, o" K
Display aspect ratio           : 2.40:1
" ~( _2 k" q' ^1 u0 R$ Y8 X* U% u8 JFrame rate mode                : Constant
( T6 ^5 M) a* P8 j$ y, [+ T+ qFrame rate                     : 24.000 FPS
; l5 K; R! i# F. l: j! M5 FColor space                    : YUV
! H' C1 P5 ^4 j; a6 Y5 EChroma subsampling             : 4:2:0 9 `  m2 X5 @1 S7 d; [
Bit depth                      : 8 bits & C5 j1 B& J  C9 I
Scan type                      : Progressive
9 u2 K% B! y( x9 O+ F2 q6 C" n" XBits/(Pixel*Frame)             : 0.042 " j- N1 u! `- P  ~4 j
Stream size                    : 5.38 GiB (99%)
. s- c+ ?/ G) u& l8 S4 fDefault                        : Yes
3 X$ h$ N. ~# ?& W3 N; B+ XForced                         : No - y) j. J/ B5 g. ^' `7 r. c$ m0 a: }
Color range                    : Limited
+ ?; V# `  C. ~Color primaries                : BT.709 3 u+ T0 m* l7 `9 G" [& h6 U- [
Transfer characteristics       : BT.709 3 \/ V4 Z) R' \$ A0 b( h* I
Matrix coefficients            : BT.709
+ ^+ \* h/ t# D- J) R  c% O# H- Q! u4 z) q" m
Audio
  w2 y: y& s/ F" t1 N( m) t+ vID                             : 2 % q/ }1 O5 ^# D  M! |! _
Format                         : AAC % i" z' v. M% N" a& I
Format/Info                    : Advanced Audio Codec " F/ n( r# Q2 ^8 P( x% m
Format profile                 : HE-AAC / LC ) M( ^2 M; W7 X& T# S1 Q# j0 \
Codec ID                       : A_AAC ! Q% r8 J3 Q8 k0 n" r
Duration                       : 2 h 3 min
* T2 D$ s/ l; ZBit rate                       : 62.9 kb/s ) A; r& \, [! T* R' q6 S
Channel(s)                     : 2 channels ) K: Q& z- m. s/ v
Channel positions              : Front: L R 8 w% }& H3 I; y
Sampling rate                  : 44.1 kHz / 22.05 kHz   I5 j# h; `+ O* k8 D
Frame rate                     : 21.533 FPS (1024 spf) , {% O6 a; m* ^) M/ |' s: `
Compression mode               : Lossy , q; i1 D" j7 l! A4 x( v1 O
Stream size                    : 55.4 MiB (1%)
/ _- ]( r8 t3 X8 [2 }/ v( I! @Default                        : Yes
" E* i, r0 T& {- w! l1 I1 R% LForced                         : No

1 R7 b: u! G6 U: o9 ~8 ]
1 H9 ]- d7 _9 i. z5 r" P% g* P5 g
4 \: z$ A" ?  X* M$ N( J+ r6 P- z  R4 ]  y' \( Q+ N& p
+ F- J" ?# D; f1 d4 D" M

1 A& m9 k. ^. ~, U
游客,如果您要查看本帖隐藏内容请回复
& _0 u8 G: O- T5 D6 z1 U; d! k
游客,如果您要查看本帖隐藏内容请回复

3 c5 S/ s8 M% S& k0 ]! j0 I
; z" `7 ~, E4 D0 J" ]2 G, Y) b& O. ?- n, b) A7 i

本帖子中包含更多资源

您需要 登录 才可以下载或查看,没有帐号?立即注册

x

评分

参与人数 1金钱 +30 收起 理由
bored + 30 4k片源不错 点赞!

查看全部评分

至尊捕鱼
发表于 2018-4-18 13:29:44 | 显示全部楼层
支持的点点滴滴多多多多
回复 支持 反对

使用道具 举报

发表于 2018-4-20 17:17:42 | 显示全部楼层
谢谢谢谢谢谢
回复 支持 反对

使用道具 举报

发表于 2018-4-21 16:30:08 | 显示全部楼层
不错,谢谢分享!
回复 支持 反对

使用道具 举报

发表于 2018-4-25 10:41:38 | 显示全部楼层
谢谢啦在P20好,还是mate10pro好
回复 支持 反对

使用道具 举报

发表于 2018-4-29 01:26:05 | 显示全部楼层
f非常感谢共享
回复 支持 反对

使用道具 举报

发表于 2018-4-29 11:32:42 | 显示全部楼层
战狼,支持一下
回复 支持 反对

使用道具 举报

发表于 2018-5-2 20:56:40 | 显示全部楼层
很好 很强大
回复 支持 反对

使用道具 举报

发表于 2018-5-5 14:13:35 | 显示全部楼层
% u0 T# |* ]. l, Z+ M# j
不错,谢谢分享!
回复 支持 反对

使用道具 举报

发表于 2018-5-5 16:11:35 | 显示全部楼层
666666666666666666
回复 支持 反对

使用道具 举报

*滑动验证:
您需要登录后才可以回帖 登录 | 立即注册

本版积分规则

QQ|小黑屋|手机版|Archiver|1080P电影网高清下载 - 1080P蓝光影视  

GMT+8, 2018-12-13 21:58 , Processed in 0.061968 second(s), 30 queries .

Powered by Discuz! X3.2

© 2001-2013 Comsenz Inc.

快速回复 返回顶部 返回列表