请选择 进入手机版 | 继续访问电脑版

1080P蓝光影视

 找回密码
 立即注册
查看: 34373|回复: 7

[动作] 战狼2 Wolf.Warriors.Ⅱ.2017.4K.2160p.&1080p.WEB-DL.x264.AAC...

  [复制链接]
发表于 2017-11-12 19:20:49 | 显示全部楼层 |阅读模式
◎译  名 新战狼/新战死沙场 ◎片  名 战狼2
* H& u. }/ j3 ~5 U$ ~9 S◎年  代 2017 5 Y3 ?* y1 p! y' p/ T
◎产  地 中国大陆 8 w" o5 b7 W& ?% |+ @* ]
◎类  别 动作
1 ?! \( T; y/ J+ W+ a◎语  言 汉语普通话/英语   P, V: b) ]; T4 d3 j: o
◎上映日期 2017-07-27(中国大陆) 0 {  d. e" j5 U5 t: T
◎IMDb评分  6.7/10 from 2,133 users
5 I0 u3 r* v" o/ \& v◎IMDb链接  http://www.imdb.com/title/tt7131870/
: {7 ]9 T9 K7 I# t◎豆瓣评分 7.4/10 from 392,877 users
% r* s3 q1 J! H; n9 b) L◎豆瓣链接 https://movie.douban.com/subject/26363254/ % z' M8 m) }# k* V
◎片  长 123分钟
2 y% ?7 z) q; S2 p+ L; Y+ [+ j◎导  演 吴京 Jacky Wu * E# v# E0 F8 Q- a
◎主  演 吴京 Jacky Wu
, G3 H" }  J9 ~. P弗兰克·格里罗 Frank Grillo . ~7 a- y( G5 J  u+ w' h
吴刚 Gang Wu 6 ~# L6 Z+ d" J, w- `' @( d
张翰 Han Zhang
+ v/ B; g8 A! f卢靖姗 Celina Jade
9 b; J( i1 H' Q1 G* G6 i丁海峰 Haifeng Ding
* u' d2 W. M( [' w% e# C淳于珊珊 Shanshan Chunyu 5 U+ F4 r. H# V" ]3 q0 @
余男 Nan Yu
. m* M" I0 @" f+ n于谦 Qian Yu
% R( }! ?! ?; u9 l2 U石兆琪 Zhaoqi Shi
3 v+ D% v" m' q海蒂·玛尼梅可 Heidi Moneymaker
. G5 ]& K2 C( g奥列格·普鲁迪乌斯 Oleg Aleksandrovich Prudius 3 j3 j1 d. D9 d* f# }# m) |6 e& }1 p
阿隆·汤尼 Aaron Toney
8 G3 T/ O; Y# n! y" d, I3 w# |/ z泰勒·哈里斯 Thayr Harris 9 N( B4 e" X8 U! i+ W% u, f
勃小龙 Pierre Bourdaud 7 A0 |  e( q6 i/ \7 L
◎简  介 * \: X! {- X9 d) T0 B# T: M) i+ c5 A
       故事发生在非洲附近的大海上,主人公冷锋(吴京 饰)遭遇人生滑铁卢,被“开除军籍”,本想漂泊一生的他,正当他打算这么做的时候,一场突如其来的意外打破了他的计划,突然被卷入了一场非洲国家叛乱,本可以安全撤离,却因无法忘记曾经为军人的使命,孤身犯险冲回沦陷区,带领身陷屠杀中的同胞和难民,展开生死逃亡。随着斗争的持续,体内的狼性逐渐复苏,最终孤身闯入战乱区域,为同胞而战斗。
2 D) d( `% W1 J0 I- U* L关于《战狼2》你应该知道的N件事 , Q; V# l% w% H1 q) [% Y
      开场一段6分钟的水上水下一镜到底镜头,剧组整整拍了半个月。演员和摄影师更是要每天在水中泡超过10个小时。为了赶时间,吴京和工作人员都是直接在水里吃东西,补充能量。2为营造枪战真实感,吴京坚持使用真枪,但流程规范严格的美方团队考虑到安全问题曾不敢让他使用。3美国动作指导萨姆·哈格里夫透露,《战狼2》拍摄中爆点位置多,火力大,算下来炸了上百辆车,2辆20吨的等比例坦克模型和1架飞机模型。4第一次挑战没人玩过的坦克漂移,摄影师险些被坦克的炮筒“削头”。5吴刚第一次拍现代的战争戏,“拜师”吴京后进步飞速,成功完成了“单手换弹夹”。 4 Z$ n6 r+ g' ~$ P
General + T- V$ c/ b: `( T, d
Format                         : Matroska 8 F3 q* f4 Y8 D& e: t5 ^4 ~
Format version                 : Version 4 / Version 2
+ o' v/ A% K& b8 C- d  Y! ^File size                      : 5.43 GiB
% L9 h8 j' ?" SDuration                       : 2 h 3 min
2 R2 |  X) a+ j1 ^1 m" gOverall bit rate               : 6 320 kb/s
1 {& k! R5 t8 iEncoded date                   : UTC 2017-11-02 16:28:00 3 }6 {0 f4 M* n7 H" V
Writing application            : mkvmerge v7.1.0 ('Good Love') 32bit built on Jul 27 2014 12:59:18
& e9 e1 T: V: S8 W" S) @: N- eWriting library                : libebml v1.3.0 + libmatroska v1.4.1 ) g; Y2 B/ L* |8 ]* X. q7 I

1 V# }' ^) I0 Y5 t% [Video 4 }) w) T5 x) u" u# S! ]7 w
ID                             : 1 2 Z7 w3 Z* H* p
Format                         : AVC ) z( h5 c' }4 |0 P; K2 o9 |. c
Format/Info                    : Advanced Video Codec
4 ]9 n- W+ v, f3 i' i$ XFormat profile                 : High@L5.1 ; C8 E0 R! o$ i- s5 z
Format settings, CABAC         : Yes
4 q! w& D( j% Q' I4 v  |# ~Format settings, ReFrames      : 3 frames 0 C: }2 W$ U0 H8 }2 c( |
Codec ID                       : V_MPEG4/ISO/AVC ' Y+ e" P8 V) a) K
Duration                       : 2 h 3 min , j2 p  U$ c+ Q  M
Bit rate                       : 6 255 kb/s ! X5 Q- \8 |: x& u
Width                          : 3 840 pixels # i2 i6 n4 P2 n$ _, M4 z9 a
Height                         : 1 608 pixels
$ }' Y% \& N7 y- ?% sDisplay aspect ratio           : 2.40:1 ! @; o  c; Q! X, S+ Z" n7 \
Frame rate mode                : Constant + j2 y: q2 C1 Q0 Z; s, y: D
Frame rate                     : 24.000 FPS 1 F& u  v% ?0 T/ J+ g' u' }
Color space                    : YUV & m4 [% Q/ T5 P& t" a: p
Chroma subsampling             : 4:2:0 - ~4 o. t" q7 ]! e+ k0 D
Bit depth                      : 8 bits ) e8 h/ W, r4 w8 u- X* I
Scan type                      : Progressive
  h$ |. P; w0 B# \- W1 z$ L, H4 b- _Bits/(Pixel*Frame)             : 0.042
$ u; @6 z/ ?- M! K/ oStream size                    : 5.38 GiB (99%)
2 f+ b& R% h7 z) FDefault                        : Yes 6 |. ^. S$ V" e- V5 k
Forced                         : No 0 m1 _# S+ [+ v, s4 g0 b+ D$ [
Color range                    : Limited 2 X8 {. G, l+ s8 Z
Color primaries                : BT.709
1 r$ d0 ~" _, [, D) MTransfer characteristics       : BT.709
3 x. B9 D& F4 |1 D* mMatrix coefficients            : BT.709 5 H2 I6 |" O) K7 H) O

2 H7 g# [; c' w* L5 M/ ZAudio ; X! W* g. p: J( h- I: e3 p, @
ID                             : 2
5 p6 y( |* U% b: H* H% @Format                         : AAC / D9 g* o$ |1 g4 h0 o+ \: q
Format/Info                    : Advanced Audio Codec   S; T) A8 x3 h; _/ y# _
Format profile                 : HE-AAC / LC
+ L0 N! g$ k: O3 m) uCodec ID                       : A_AAC   X! o9 F9 V1 x
Duration                       : 2 h 3 min 5 q3 k7 p- v0 A5 F* l9 Q3 T. U# J
Bit rate                       : 62.9 kb/s
! X& w) v/ D+ q& h* b2 ZChannel(s)                     : 2 channels
# s$ {$ ?6 E  h/ l4 BChannel positions              : Front: L R
( Z! S: o# @' u& Q$ V; DSampling rate                  : 44.1 kHz / 22.05 kHz . d+ G# z! [& N7 v- l( G
Frame rate                     : 21.533 FPS (1024 spf)
  _& ?5 K) L9 K1 aCompression mode               : Lossy 0 v/ G4 |. Q/ F
Stream size                    : 55.4 MiB (1%) , G( a7 Q8 V  Y7 v0 q2 o2 v# k
Default                        : Yes : K8 _* A' [* y/ c  v
Forced                         : No
9 a+ V. b  `7 @" |9 [! ]
( K$ v' J, u; |& S- |, |- d5 ^

% |' U) `' q, }8 Q3 U5 H
7 V$ r5 ^- `1 L* q% \8 p3 ?, e: Z. `/ h  j( N9 j* z9 z5 x1 L( E

* J9 p2 t( O) z1 g
游客,如果您要查看本帖隐藏内容请回复
5 P' s& \; w) O" C" \
游客,如果您要查看本帖隐藏内容请回复

* Z( _2 \9 G8 @* B& {/ A, \3 F4 S2 O) h

4 E8 e+ E% N  T+ M7 W

本帖子中包含更多资源

您需要 登录 才可以下载或查看,没有帐号?立即注册

x

评分

参与人数 1金钱 +30 收起 理由
bored + 30 4k片源不错 点赞!

查看全部评分

发表于 4 天前 | 显示全部楼层
支持的点点滴滴多多多多
回复 支持 反对

使用道具 举报

发表于 前天 17:17 | 显示全部楼层
谢谢谢谢谢谢
回复 支持 反对

使用道具 举报

发表于 昨天 16:30 | 显示全部楼层
不错,谢谢分享!
回复 支持 反对

使用道具 举报

*滑动验证:
您需要登录后才可以回帖 登录 | 立即注册

本版积分规则

QQ|小黑屋|手机版|Archiver|1080P电影网高清下载 - 1080P蓝光影视  

GMT+8, 2018-4-22 11:02 , Processed in 0.126186 second(s), 25 queries .

Powered by Discuz! X3.2

© 2001-2013 Comsenz Inc.

快速回复 返回顶部 返回列表