请选择 进入手机版 | 继续访问电脑版

1080P蓝光影视

 找回密码
 立即注册
查看: 43499|回复: 62

[动作] 战狼2 Wolf.Warriors.Ⅱ.2017.4K.2160p.&1080p.WEB-DL.x264.AAC...

  [复制链接]
发表于 2017-11-12 19:20:49 | 显示全部楼层 |阅读模式
◎译  名 新战狼/新战死沙场 ◎片  名 战狼2
$ S6 w6 R, j: V7 A% j7 X2 A◎年  代 2017 5 X  a- N$ W, B# N3 H8 v# K. M
◎产  地 中国大陆 ! L5 w6 W3 t* X; F7 q5 J
◎类  别 动作 . ~8 E+ v- u/ h* r5 w
◎语  言 汉语普通话/英语
$ W# U- V$ K- M, K: S4 _◎上映日期 2017-07-27(中国大陆) 1 T! _; D' R4 ?8 z! {! m- Y/ J+ O7 c
◎IMDb评分  6.7/10 from 2,133 users ! C6 }" M& k3 o9 _/ x4 P  Z3 `
◎IMDb链接  http://www.imdb.com/title/tt7131870/ ' Q; q* u  M- g( F
◎豆瓣评分 7.4/10 from 392,877 users
1 t7 w. W4 o! L4 x3 x& m◎豆瓣链接 https://movie.douban.com/subject/26363254/ 3 s! r/ ~7 ~9 f$ V1 ^/ [# j9 d2 P
◎片  长 123分钟 2 \! P* c$ z6 j+ y/ _. W6 N+ ^
◎导  演 吴京 Jacky Wu
/ y, v9 I  o. Z0 B◎主  演 吴京 Jacky Wu 8 [( F0 b: B, m: k" ]) T  e
弗兰克·格里罗 Frank Grillo
- a% ?% R* D# z" i' d吴刚 Gang Wu ) S* t4 R# k& k& s6 Q+ K0 L
张翰 Han Zhang
- d+ `* M* @5 A5 v; h卢靖姗 Celina Jade : ~- O" t$ F  H- ~4 _1 v4 @
丁海峰 Haifeng Ding / N9 n4 k. Q3 B4 E" p% ~
淳于珊珊 Shanshan Chunyu
& ?& `5 q  E& D: W3 Z余男 Nan Yu
) t: |0 K  t0 J& i" w: W于谦 Qian Yu & |0 M, G5 I" j: U
石兆琪 Zhaoqi Shi 1 v& W! M$ p( X  c1 P& c1 ?% {
海蒂·玛尼梅可 Heidi Moneymaker
2 U2 ?  g  z7 t( `: O奥列格·普鲁迪乌斯 Oleg Aleksandrovich Prudius
1 m7 X) m+ |: t% F/ e- [5 q阿隆·汤尼 Aaron Toney
7 s* N2 O2 `2 K5 R! ]泰勒·哈里斯 Thayr Harris
4 t. G. @% J, p勃小龙 Pierre Bourdaud 7 V+ U  s9 o2 {4 l0 p+ q9 e
◎简  介 7 j$ M6 M# c. b  v# s* K* ~
       故事发生在非洲附近的大海上,主人公冷锋(吴京 饰)遭遇人生滑铁卢,被“开除军籍”,本想漂泊一生的他,正当他打算这么做的时候,一场突如其来的意外打破了他的计划,突然被卷入了一场非洲国家叛乱,本可以安全撤离,却因无法忘记曾经为军人的使命,孤身犯险冲回沦陷区,带领身陷屠杀中的同胞和难民,展开生死逃亡。随着斗争的持续,体内的狼性逐渐复苏,最终孤身闯入战乱区域,为同胞而战斗。 . N' C/ J6 z( M
关于《战狼2》你应该知道的N件事 4 u) S$ Y; S& T, c
      开场一段6分钟的水上水下一镜到底镜头,剧组整整拍了半个月。演员和摄影师更是要每天在水中泡超过10个小时。为了赶时间,吴京和工作人员都是直接在水里吃东西,补充能量。2为营造枪战真实感,吴京坚持使用真枪,但流程规范严格的美方团队考虑到安全问题曾不敢让他使用。3美国动作指导萨姆·哈格里夫透露,《战狼2》拍摄中爆点位置多,火力大,算下来炸了上百辆车,2辆20吨的等比例坦克模型和1架飞机模型。4第一次挑战没人玩过的坦克漂移,摄影师险些被坦克的炮筒“削头”。5吴刚第一次拍现代的战争戏,“拜师”吴京后进步飞速,成功完成了“单手换弹夹”。
% ]: k$ L  k( |  K
General
) f! ?; x  i3 N  a' HFormat                         : Matroska " l9 w, O- J8 r4 W; {& u7 s) ~6 @# N# g
Format version                 : Version 4 / Version 2
1 p4 K8 n5 G/ U, e- N/ TFile size                      : 5.43 GiB 4 X% K5 Q( h+ @8 O  U1 d" z
Duration                       : 2 h 3 min
& K6 b6 m' R( f: f# t* lOverall bit rate               : 6 320 kb/s . |3 S1 D% H9 F+ ]$ v: N0 Q
Encoded date                   : UTC 2017-11-02 16:28:00
: [3 g( u* a3 ]# F( }Writing application            : mkvmerge v7.1.0 ('Good Love') 32bit built on Jul 27 2014 12:59:18 % N( v8 m5 a% N& M
Writing library                : libebml v1.3.0 + libmatroska v1.4.1 6 X" r  d& ]: h) B8 p+ F. P" P
3 h  ^' f% q2 j/ I4 i0 A% i
Video
% S% }$ A$ _+ m/ C9 Y+ X) I2 p) t0 uID                             : 1
: |4 D$ W9 _' r; A% lFormat                         : AVC + T. f3 p$ j" {5 x, a
Format/Info                    : Advanced Video Codec 4 o# D2 ~9 h0 D  a4 P, A9 A! R
Format profile                 : High@L5.1 1 u* P1 ?' Y" R7 s  Y
Format settings, CABAC         : Yes 4 y- l! k% h! g+ F! R
Format settings, ReFrames      : 3 frames
/ u! I* h$ b0 U$ l3 X7 pCodec ID                       : V_MPEG4/ISO/AVC 2 F) H7 N+ G* ]( o- x
Duration                       : 2 h 3 min
1 \) K/ X- o; k: z4 y" {Bit rate                       : 6 255 kb/s ( T" `0 z# H( t
Width                          : 3 840 pixels
0 A5 y5 ]$ O8 H; o* _+ q( ZHeight                         : 1 608 pixels
9 q- ]& l5 J3 f* N9 a- rDisplay aspect ratio           : 2.40:1
- u/ {1 ~' A6 S/ r" ~: IFrame rate mode                : Constant
) b* E  I# S& I! c2 ~/ W" Q0 uFrame rate                     : 24.000 FPS
0 D/ z# M. C! f6 G0 G# eColor space                    : YUV 7 l0 ^- n' v% E. F7 ~( I  i
Chroma subsampling             : 4:2:0 % Q; \! t/ }+ W
Bit depth                      : 8 bits
! _! L. s: B1 T, G' o2 Y  e* t! kScan type                      : Progressive 5 C) Q  j6 C1 N
Bits/(Pixel*Frame)             : 0.042 / @, n( F! ?, ~" K" F2 p
Stream size                    : 5.38 GiB (99%)
. a6 q( b  L* A, }/ yDefault                        : Yes
! W% E4 b  l* N; a3 @Forced                         : No + }) {5 {+ C9 w' k; N
Color range                    : Limited
4 ]3 E( p% X( I) x5 ?Color primaries                : BT.709
8 M/ s; K5 }0 }: s2 vTransfer characteristics       : BT.709 9 N4 q* u+ y: }% t3 l; t) f3 F, H/ L2 ^( U
Matrix coefficients            : BT.709
! U/ B; j: z1 e. n, Z$ I+ q
: E, }/ ]1 k0 [5 s. xAudio
: D& k" E3 l5 q4 q( r7 M/ `ID                             : 2
& x  G+ h# x" R$ X- p2 O7 `" @  ~Format                         : AAC 1 ^& A4 W1 }, Y# O7 s9 o
Format/Info                    : Advanced Audio Codec 1 l# U" C8 h6 s- t
Format profile                 : HE-AAC / LC
+ D  [6 k% ]' @) G$ v) FCodec ID                       : A_AAC 2 d* F1 n* W6 ?& g- @' f2 E, z
Duration                       : 2 h 3 min
3 ^, `8 s0 B' ]0 R! PBit rate                       : 62.9 kb/s 0 t4 U+ |# R$ V
Channel(s)                     : 2 channels
9 Z- l2 B" ~, B% e9 _8 `8 pChannel positions              : Front: L R
  L/ L( _. Y% R' y$ k, ^Sampling rate                  : 44.1 kHz / 22.05 kHz
- c" \% `& i1 \Frame rate                     : 21.533 FPS (1024 spf) ; n/ }& h. [3 T
Compression mode               : Lossy % V/ W- }2 B- H) b
Stream size                    : 55.4 MiB (1%)
3 j& K# r  V  L% EDefault                        : Yes
+ v" R7 a; L6 oForced                         : No
. O* }" L+ a$ g8 g2 p- m; q
* V' W% `$ x. a5 v8 U6 v3 r5 A: p2 \
5 d4 F: |* _2 R6 [* Z& |

" K# i; p4 x+ _4 L8 z
$ s8 B$ {8 e6 u' f2 H" `) D
& R9 g0 b& Q/ a( [4 m( q, W
游客,如果您要查看本帖隐藏内容请回复

- d* J% F- [6 T( i
游客,如果您要查看本帖隐藏内容请回复

- M1 t8 |! |) H! F2 l
- n1 G6 |/ h4 u0 d) g4 [+ Z; {0 E2 C) e- b

本帖子中包含更多资源

您需要 登录 才可以下载或查看,没有帐号?立即注册

x

评分

参与人数 1金钱 +30 收起 理由
bored + 30 4k片源不错 点赞!

查看全部评分

至尊捕鱼
发表于 2018-4-18 13:29:44 | 显示全部楼层
支持的点点滴滴多多多多
回复 支持 反对

使用道具 举报

发表于 2018-4-20 17:17:42 | 显示全部楼层
谢谢谢谢谢谢
回复 支持 反对

使用道具 举报

发表于 2018-4-21 16:30:08 | 显示全部楼层
不错,谢谢分享!
回复 支持 反对

使用道具 举报

发表于 2018-4-25 10:41:38 | 显示全部楼层
谢谢啦在P20好,还是mate10pro好
回复 支持 反对

使用道具 举报

发表于 2018-4-29 01:26:05 | 显示全部楼层
f非常感谢共享
回复 支持 反对

使用道具 举报

发表于 2018-4-29 11:32:42 | 显示全部楼层
战狼,支持一下
回复 支持 反对

使用道具 举报

发表于 2018-5-2 20:56:40 | 显示全部楼层
很好 很强大
回复 支持 反对

使用道具 举报

发表于 2018-5-5 14:13:35 | 显示全部楼层

6 R1 a* H9 t8 T3 p' G0 O7 m不错,谢谢分享!
回复 支持 反对

使用道具 举报

发表于 2018-5-5 16:11:35 | 显示全部楼层
666666666666666666
回复 支持 反对

使用道具 举报

*滑动验证:
您需要登录后才可以回帖 登录 | 立即注册

本版积分规则

QQ|小黑屋|手机版|Archiver|1080P电影网高清下载 - 1080P蓝光影视  

GMT+8, 2018-7-18 14:53 , Processed in 0.123805 second(s), 26 queries .

Powered by Discuz! X3.2

© 2001-2013 Comsenz Inc.

快速回复 返回顶部 返回列表