请选择 进入手机版 | 继续访问电脑版

1080P蓝光影视

 找回密码
 立即注册
查看: 584|回复: 9

[其他] [血观音]The.Bold.the.Corrupt.and.the.Beautiful.2017.720p.BluRay.x264-WiKi 5.4G

[复制链接]
发表于 2018-4-10 16:49:38 | 显示全部楼层 |阅读模式

8 k! c& h+ u( I◎译  名 血观音/修罗花
0 I4 [( d+ ^4 q- u◎片  名 血觀音
# {  ^# p9 ?# n) P6 x◎年  代 2017$ Z& F3 u* p! ]% x* p% g
◎产  地 台湾
* t, F* Z: E4 r2 s. m◎类  别 剧情/悬疑' U6 n5 ~1 \* J- c3 E/ w
◎语  言 汉语普通话/粤语/闽南语/日语8 ]; m! R: [0 O- Z( u, T/ W
◎上映日期 2017-10-15(釜山电影节)/2017-11-24(台湾)1 v: v2 @% Q/ |* j
◎IMDb评分 7.6/10 from 598 users
" W: Q7 X' j) o( O- i/ R◎IMDb链接 http://www.imdb.com/title/tt7479784/' |: i1 V. n; ~. E7 Z  h& X
◎豆瓣评分 7.6/10 from 1,382 users! U, r; F. l& ^' t3 B
◎蓝光高清   http://www.1080pdy.com! K6 n/ p3 T) \
◎片  长 112分钟
1 w2 x3 a1 [& o4 M◎导  演 杨雅喆 Ya-che Yang' a/ B# N9 g- O5 a! |9 Z2 t
◎主  演 惠英红 Kara Wai Ying Hung
* D# Z6 Y/ D2 U" o      吴可熙 Wu Ke-Hsi
# z1 `) \3 G  @  G0 _9 C# z/ ?      文淇 Qi Wen! p: P$ ^/ c$ o' e
      陈莎莉 Sally Chan+ }$ U( ^2 L, S" _8 I/ S% X0 q
      丁强 Chiang Ting2 q+ g* i! {) x: a/ T3 b
      刘尚谦 Shang-Chien Liu0 W+ _/ {; g7 c2 `; H
      柯佳嬿 Alice Ko8 W/ c2 h- u6 D7 |# w$ T& `; L
      林志儒 Chih-ju Lin, _$ u+ e; Z& x; S1 Z, ^, @
      王月 Moon Wang5 L# x0 @, e- u, m  _
      温贞菱 Chuen Wen6 S2 |( h5 H$ M( n0 t
      王伟六 Weiliu Wang+ f$ Y9 x: ~2 V& }$ a3 l0 p. E  Y
      陈珮骐 Carolyn Chan, I/ s3 N' [9 S3 O3 _  W
      尹昭德 Chao-te Yin. k, \5 ^/ j# n
      大久保麻梨子 Mariko Okubo
$ X  {: `0 I% ^8 G6 t      巫书维 Shu Wei Wu
6 B3 g8 a; _, P6 K3 ~' T& U; ^      颜毓麟 Keennny Yen% w. r* c: r9 I
      刘越逖 Yue-Ti Liu
% e1 Q- |$ n2 g, k      傅子纯 Tzu-chun Fu
4 l. Q1 Y- `9 Z9 A      陈武康 Wu-Kang Chen
0 j" C1 F% `$ D  S, Y. _      施名帅 Ming-Shuai Shih
! N9 A, ^% P0 f& z3 }      秀兰玛雅 Showlen Maya
2 z& v; u6 v, j8 j      应蔚民 Wei-min Ying+ l. }! C7 N/ i: U2 ]8 s5 L
      李铨 Peter Li
' B9 N+ n5 Q# h. v( d  {; a8 X) u# V( N! z' K
% _! P; V. L" G+ g: p) T
◎简  介3 A+ I- ]4 p' c; H
  《血观音》描述在女人组成的棠府里,住着3位不同世代但一样懂人心的女性,由棠夫人(惠英红饰)主持大局,穿梭权贵间,靠着高超手腕与柔软身段,在复杂的政商关系中生存取利;个性如刺猬般的大女儿棠宁(吴可熙饰)为求母亲肯定,勉力配合;乖巧的小女儿棠真(文淇饰)多半静静观察,唯母命是从。直到某天,棠家亲密友人惨遭灭门事件爆发,三人各自被牵扯其中,一向以大局为重的棠夫人,为了守护一切,费尽心机,却让三人走向不同的命运。
4 K8 Q3 f( L1 B- p
% _4 W) ~5 ^1 b& R/ @1 x, q0 ]0 y6 _& I
◎获奖情况
, j4 b) Q7 _- l  第54届台北金马影展 (2017)& ]# K2 L# s6 Y8 Q  `- }
  金马奖 最佳剧情片- S, l6 D2 T# t' g
  金马奖 最佳导演(提名) 杨雅喆% m7 Q  Z% v% X
  金马奖 最佳女主角 惠英红
' K5 T( L( C, U6 h5 B9 T0 y  金马奖 最佳女配角 文淇
4 R3 ^; Y+ r) E4 V6 u4 s$ ]  金马奖 最佳原著剧本(提名) 杨雅喆
+ f* p+ c- x; R  金马奖 最佳美术设计(提名) 蔡珮玲
7 u1 X" d3 k; ~$ F  金马奖 最佳造型设计(提名) 王佳惠
4 J: s9 _' p- \9 X! m, x: K- z0 _/ Q8 K, j
5 I' L0 o) p# d& X
  第37届香港电影金像奖 (2018)
0 ^5 q. {( N3 T  最佳两岸华语电影(提名)
6 I0 G# K3 |1 Z3 I* \. \$ G6 C+ R; s7 ?4 V
* `- c2 T! H3 P9 }( S
  第4届豆瓣电影年度榜单 (2017)
) Y& F) n$ K2 u. s% _  年度华语独立佳作(提名)* y* @4 }+ F: p6 [

! K2 y, n: \+ _$ N. o: u. K5 \6 L6 o  V5 z
Video
8 N$ ~0 e- V; sID : 1
9 }# }( Z+ g) P! Z4 VFormat : AVC
0 s2 W5 k& u- ]! C8 A. mFormat/Info : Advanced Video Codec
. [0 }: u2 ~: Z. Q1 NFormat profile : High@L4.1
1 n1 S9 D" k, n. fFormat settings : CABAC / 9 Ref Frames+ T' e' O  B" c' j9 y
Format settings, CABAC : Yes
$ I# L  U" W  h; s( K, @1 c0 X) OFormat settings, ReFrames : 9 frames; y: g7 y! F1 e2 t# q
Codec ID : V_MPEG4/ISO/AVC
* Q6 H: Y0 C0 L9 o: `6 zDuration : 1 h 52 min2 [2 L3 G. L' ^9 Z8 c" G
Bit rate : 6 340 kb/s
; W2 o7 n* g# z3 @4 b6 u! U$ tWidth : 1 280 pixels
" w/ N' U1 Y  v3 P  [: a7 ZHeight : 720 pixels0 ^$ i" r4 M, l3 R; i  [4 R
Display aspect ratio : 16:9! {2 T6 `" [4 w, }* |, e* i
Frame rate mode : Constant
4 a) q1 M5 r' @3 j2 u: W2 ?3 q7 yFrame rate : 24.000 FPS
/ |) i) P& k, G% g7 EColor space : YUV
- q1 B8 I8 I4 E: f* p0 @Chroma subsampling : 4:2:0- @2 O; k% a5 R. c, A0 ?4 k
Bit depth : 8 bits
5 N! R7 i5 [5 q/ j; {  m# d* rScan type : Progressive- O3 Y3 ]' f# `3 D. w
Bits/(Pixel*Frame) : 0.2876 V6 \/ i  u% @" ]
Stream size : 4.96 GiB (91%)( j! v  ~" Q4 O. r/ _2 G
Writing library : x264 core 129 r2245+704+36 8e61944 tMod+MixAQ [8-bit@4:2:0 X86_64]) S& n, w* v  ~6 @/ {3 [+ \% a" {% Z, U
Encoding settings : cabac=1 / ref=9 / deblock=1:-3:-3 / analyse=0x3:0x133 / me=umh / subme=11 / psy=1 / fade_compensate=0.00 / psy_rd=1.05:0.10 / mixed_ref=1 / me_range=32 / chroma_me=1 / trellis=2 / 8x8dct=1 / cqm=0 / deadzone=21,11 / fast_pskip=0 / chroma_qp_offset=-3 / threads=18 / lookahead_threads=3 / sliced_threads=0 / nr=0 / decimate=0 / interlaced=0 / bluray_compat=0 / constrained_intra=0 / fgo=0 / bframes=10 / b_pyramid=2 / b_adapt=2 / b_bias=0 / direct=3 / weightb=1 / open_gop=0 / weightp=2 / keyint=250 / keyint_min=23 / scenecut=40 / intra_refresh=0 / rc=2pass / mbtree=0 / bitrate=6340 / ratetol=1.0 / qcomp=0.70 / qpmin=0 / qpmax=69 / qpstep=4 / cplxblur=20.0 / qblur=0.5 / ip_ratio=1.40 / pb_ratio=1.30 / aq=1 / aq-strength=0.85 / aq-sensitivity=10.00 / aq-ifactor=1.00 / aq-pfactor=1.00 / aq-bfactor=1.00 / aq2=0
2 s+ O8 S2 N! w: {/ SLanguage : Chinese
! [- p% W% E' u7 J. k2 x5 {) nDefault : Yes
; X" |7 R" P4 M  uForced : No
7 ]1 Q6 G" u& \' P0 |Color range : Limited% d5 U( \/ d! Y: w/ D
Matrix coefficients : BT.709
& j3 {+ U8 @4 i0 W$ A+ r1 [
" P. B+ Z) R. R, ]$ SAudio
. ?5 ]: _9 w7 Y1 ZID : 2( G0 L2 |) R, K9 ]3 b4 Y: J
Format : AC-37 q/ B8 L  }) ?* u9 A
Format/Info : Audio Coding 3% A3 U5 f/ ^! h7 W7 V) ?& c
Codec ID : A_AC3
+ c* c& `- g) L2 l- k; ~Duration : 1 h 52 min
, H! B, K3 p( P. S$ }* RBit rate mode : Constant2 a+ K9 f/ H0 B* q
Bit rate : 640 kb/s* W6 y' I" D7 O/ P
Channel(s) : 6 channels
. l3 e' r  ~: p2 [Channel positions : Front: L C R, Side: L R, LFE
9 ]5 x8 @3 [+ g5 k* D9 pSampling rate : 48.0 kHz
4 I# ]. O! M5 ?+ ]4 UFrame rate : 31.250 FPS (1536 SPF)
. y0 l+ u- _; M$ }. H! wBit depth : 16 bits
- X* N7 k! w" Q+ O- ACompression mode : Lossy$ W+ D/ v/ d! o1 z+ B3 ]( T
Stream size : 513 MiB (9%)# ]9 y8 s5 [0 q
Language : Chinese9 I1 H& C- F2 t% W
Service kind : Complete Main- ~+ j* N) D4 J, A! A
Default : Yes
0 n4 i, o! D# |* bForced : No
$ {# o' v$ I2 s3 ~. L: T
; R5 b5 g; N6 d8 P7 ]  V& ZText #1
+ m7 k/ U% w& w$ g( eID : 3
9 i9 s8 B) Q  oFormat : UTF-8
. z* \+ y) B& P7 i' E1 c0 iCodec ID : S_TEXT/UTF8# O! V2 {. N3 B7 f, e
Codec ID/Info : UTF-8 Plain Text4 _" [; S. t7 e7 y
Duration : 1 h 47 min/ X; u, p3 f; J/ l" y: r! f
Bit rate : 39 b/s
9 i& C# x; Z5 M/ _0 kCount of elements : 1334
! e/ P. {+ n; x9 q6 A8 Z' I8 rStream size : 30.6 KiB (0%)
, j+ T% ?1 x  Y  q7 LTitle : Simplified
: o2 P9 T! w. `6 w' lLanguage : Chinese
) J. x* l; {& u: V- l2 \7 JDefault : Yes% L4 Z  `  r9 ?2 r  H
Forced : No
' j) {: Y+ }, Y8 N, {; ^& f+ A/ |4 ]/ Y: q
Text #2
3 K$ K% {' P1 J( P# B/ EID : 4
. k, D' M+ g- ]% DFormat : UTF-8
' O! z$ Z/ E2 m) S5 O9 k- n4 {7 UCodec ID : S_TEXT/UTF8" S- X9 n+ ?8 x: {/ y
Codec ID/Info : UTF-8 Plain Text/ m' y, O+ ^8 K: Q* t
Duration : 1 h 47 min
0 A+ C6 R& |: H8 g( x4 qBit rate : 39 b/s
+ {% _4 I9 l6 N$ A: p- fCount of elements : 1334! v% q/ }/ |* F/ {) o4 l/ ?
Stream size : 30.6 KiB (0%)% {0 ^; _+ C1 G% {
Title : Traditional
: b4 D/ c6 U1 d  a  m' ILanguage : Chinese+ S$ ]& j. S; s/ U
Default : No
( E7 \0 o. w, @Forced : No
4 Y. ]1 w4 w" w: G! Q' ?. z6 p' V8 [( ^9 F( t+ }! e
& x! w1 b# n# J* g

* X5 n9 h. _, p
- L  H* C- H8 [( }6 s* o- P- {7 A3 B1 d* N- x4 y3 |

9 {: i8 }1 _4 V( t* L! ~! C' i5 W1 r& I2 h) o
游客,如果您要查看本帖隐藏内容请回复

本帖子中包含更多资源

您需要 登录 才可以下载或查看,没有帐号?立即注册

x
至尊捕鱼
发表于 2018-4-12 16:37:32 | 显示全部楼层
不错非常的好看啊
回复 支持 反对

使用道具 举报

发表于 2018-4-18 12:02:08 | 显示全部楼层
感谢分享,支持一下
回复 支持 反对

使用道具 举报

发表于 2018-5-1 12:20:03 | 显示全部楼层
很好啊,非常想看看你
回复 支持 反对

使用道具 举报

发表于 2018-5-5 20:33:43 | 显示全部楼层
顶顶顶顶顶顶顶顶顶顶顶顶顶顶顶顶顶顶!
回复 支持 反对

使用道具 举报

发表于 2018-6-24 22:20:44 | 显示全部楼层
辛苦楼主了
回复 支持 反对

使用道具 举报

发表于 2018-6-26 22:54:05 | 显示全部楼层
看看怎么样,谢谢楼主分享!
回复 支持 反对

使用道具 举报

发表于 2018-9-7 15:44:31 | 显示全部楼层
感谢楼主无私的分享,非常感谢
回复 支持 反对

使用道具 举报

*滑动验证:
您需要登录后才可以回帖 登录 | 立即注册

本版积分规则

QQ|小黑屋|手机版|Archiver|1080P电影网高清下载 - 1080P蓝光影视  

GMT+8, 2018-10-20 07:08 , Processed in 0.088832 second(s), 23 queries .

Powered by Discuz! X3.2

© 2001-2013 Comsenz Inc.

快速回复 返回顶部 返回列表