请选择 进入手机版 | 继续访问电脑版

1080P蓝光影视

 找回密码
 立即注册
查看: 528|回复: 8

[其他] [血观音]The.Bold.the.Corrupt.and.the.Beautiful.2017.720p.BluRay.x264-WiKi 5.4G

[复制链接]
发表于 2018-4-10 16:49:38 | 显示全部楼层 |阅读模式
3 {% m* D3 z+ K& J
◎译  名 血观音/修罗花
  R  Y" T. U0 m2 f& ~2 {. S◎片  名 血觀音/ a- K0 @( u0 u& p/ q- ]6 V
◎年  代 20176 s5 l  c) ?7 k8 \7 a9 q2 Y) i
◎产  地 台湾0 h3 s8 k4 ~- C% @* K
◎类  别 剧情/悬疑
# N$ o2 E3 ?+ E; Z" c" y# [◎语  言 汉语普通话/粤语/闽南语/日语" m% u* e- s& }5 |, Z' \' k* M& @
◎上映日期 2017-10-15(釜山电影节)/2017-11-24(台湾)
4 v9 S& G& L. u( w◎IMDb评分 7.6/10 from 598 users
( V- W, z5 |% ]& L◎IMDb链接 http://www.imdb.com/title/tt7479784/
, [3 {, {# Q- O7 D6 k" w◎豆瓣评分 7.6/10 from 1,382 users% }6 t/ D( {) ^6 ~9 ~
◎蓝光高清   http://www.1080pdy.com
- y; i0 e" M- A% K◎片  长 112分钟% q( S0 Q& f( d9 `7 k7 j, j6 H
◎导  演 杨雅喆 Ya-che Yang9 E% R0 @) B7 P
◎主  演 惠英红 Kara Wai Ying Hung! ^9 E4 A; w/ A- S
      吴可熙 Wu Ke-Hsi: j& R! N8 i+ E( ?5 T2 h
      文淇 Qi Wen
( D/ ]& k/ d, d. d- Y# n      陈莎莉 Sally Chan2 b9 I# j  o+ j- |' Y
      丁强 Chiang Ting
8 n% t- h8 T2 q- ~! c: m/ T2 J" O" T      刘尚谦 Shang-Chien Liu
: t# T4 b9 L. j1 Y      柯佳嬿 Alice Ko! f9 z7 A7 t7 O% V# ?
      林志儒 Chih-ju Lin3 \, r0 c3 I5 z) b: y  G9 E9 I7 u
      王月 Moon Wang
; P2 F; {/ l* Z3 i3 h5 O      温贞菱 Chuen Wen
7 P1 A; a! Q2 i2 s0 O# t6 a2 [6 Q3 U" M      王伟六 Weiliu Wang9 S. g" {9 C2 C+ U
      陈珮骐 Carolyn Chan( y( @. b! |3 C9 M
      尹昭德 Chao-te Yin
3 K* }( i( x; u9 U. {      大久保麻梨子 Mariko Okubo
3 L) g" Y; [: I; y: m7 |      巫书维 Shu Wei Wu
$ q. [+ b& X. f* f  c      颜毓麟 Keennny Yen
, x1 e9 w, J2 z0 o5 s: ^8 z      刘越逖 Yue-Ti Liu3 g. r; i1 S+ V
      傅子纯 Tzu-chun Fu; C- T# }8 h% u4 r8 {
      陈武康 Wu-Kang Chen
% s! g5 M: D6 O0 ^, ?' A- q, ]  K6 X      施名帅 Ming-Shuai Shih
! m  R  p# f* ?' B6 b      秀兰玛雅 Showlen Maya! ~0 F* _4 k' `1 B4 d3 U
      应蔚民 Wei-min Ying7 A( S  ?4 P1 C' T& O! x0 J% m
      李铨 Peter Li! h& |# u8 p8 F2 ?

8 t9 M1 D- `% s6 ^( T
% r! |; z8 V6 o; U4 D3 H5 W◎简  介
4 [, u+ V2 c$ E% L  《血观音》描述在女人组成的棠府里,住着3位不同世代但一样懂人心的女性,由棠夫人(惠英红饰)主持大局,穿梭权贵间,靠着高超手腕与柔软身段,在复杂的政商关系中生存取利;个性如刺猬般的大女儿棠宁(吴可熙饰)为求母亲肯定,勉力配合;乖巧的小女儿棠真(文淇饰)多半静静观察,唯母命是从。直到某天,棠家亲密友人惨遭灭门事件爆发,三人各自被牵扯其中,一向以大局为重的棠夫人,为了守护一切,费尽心机,却让三人走向不同的命运。: t9 J) d* }* j0 g

! |/ v: O3 G& n6 D) Y6 e7 g& _9 v& m/ C/ i: f
◎获奖情况* C. J9 a& n3 N' {6 p/ t& p2 a
  第54届台北金马影展 (2017)3 O/ k; P+ e. b+ E9 {% }. k
  金马奖 最佳剧情片0 N& ~8 L' g5 Q: v, [( W
  金马奖 最佳导演(提名) 杨雅喆
8 q8 G- L" x; k( Z2 _+ {5 p% l  金马奖 最佳女主角 惠英红
! Q; ^3 [1 ^  q6 e2 b3 E4 s  金马奖 最佳女配角 文淇4 i' e+ `& t4 H( f5 x. n% Z, c
  金马奖 最佳原著剧本(提名) 杨雅喆6 V5 z  ~- D* Z) t
  金马奖 最佳美术设计(提名) 蔡珮玲
' ^$ w- Y9 E$ ]9 P9 D/ v  金马奖 最佳造型设计(提名) 王佳惠
) J: q$ s$ D* L0 |/ k# Y
* K5 u- \5 a* B( d) o3 Q4 `
4 t3 d  ~* N0 p  s  第37届香港电影金像奖 (2018)
) N- B8 E  S9 U) f6 j* U% A, O  最佳两岸华语电影(提名)' M, G. l4 e+ s/ G, a" z

  p2 |/ x6 C3 v8 b. [1 f& b  e  W" N+ \! i
  第4届豆瓣电影年度榜单 (2017)
! ?. f7 [9 {; V3 N  年度华语独立佳作(提名)
' F7 g- c$ i$ ^" w: X
- _( s3 [( |6 V. _
& [0 J. @! y1 t$ P. L2 ]! {3 I$ f" nVideo
; @1 o0 m7 L  g* wID : 1
7 B8 `4 W0 }+ @9 z8 d$ ?% xFormat : AVC. G* i* |: u* ]  J# w4 ]5 |
Format/Info : Advanced Video Codec; I' W% z  H2 v1 i2 N$ B' W
Format profile : High@L4.1
1 S' p/ p# v: \Format settings : CABAC / 9 Ref Frames" c) d7 b1 p; |
Format settings, CABAC : Yes
* E! w5 I0 d- M! uFormat settings, ReFrames : 9 frames. k* n% \4 u2 p9 m; j" t7 B. y: O
Codec ID : V_MPEG4/ISO/AVC" o; A9 c( _- j' B; |
Duration : 1 h 52 min
% L/ `% u& }8 E, \Bit rate : 6 340 kb/s
( g0 o# M% D4 SWidth : 1 280 pixels$ q  T( g# @) d" K/ `7 D
Height : 720 pixels1 ?9 g( \' J5 s' [; |
Display aspect ratio : 16:9* O3 h1 E& \* X9 {" F* v
Frame rate mode : Constant6 Y. @! T+ i5 [3 A9 h) D
Frame rate : 24.000 FPS4 s4 i# o/ w0 ~% K
Color space : YUV
3 Q" c# c: @& ~( [. b3 S  MChroma subsampling : 4:2:08 p  E; h" T# Z+ l& P
Bit depth : 8 bits6 U+ I% O4 Z# y/ r. i: c  w
Scan type : Progressive
/ d, m  G. g7 P7 EBits/(Pixel*Frame) : 0.2879 U0 B/ W0 g& I2 g. U
Stream size : 4.96 GiB (91%)7 ?! d" H0 \; p* h$ e
Writing library : x264 core 129 r2245+704+36 8e61944 tMod+MixAQ [8-bit@4:2:0 X86_64]3 T" }  c9 S% V$ j. [9 d
Encoding settings : cabac=1 / ref=9 / deblock=1:-3:-3 / analyse=0x3:0x133 / me=umh / subme=11 / psy=1 / fade_compensate=0.00 / psy_rd=1.05:0.10 / mixed_ref=1 / me_range=32 / chroma_me=1 / trellis=2 / 8x8dct=1 / cqm=0 / deadzone=21,11 / fast_pskip=0 / chroma_qp_offset=-3 / threads=18 / lookahead_threads=3 / sliced_threads=0 / nr=0 / decimate=0 / interlaced=0 / bluray_compat=0 / constrained_intra=0 / fgo=0 / bframes=10 / b_pyramid=2 / b_adapt=2 / b_bias=0 / direct=3 / weightb=1 / open_gop=0 / weightp=2 / keyint=250 / keyint_min=23 / scenecut=40 / intra_refresh=0 / rc=2pass / mbtree=0 / bitrate=6340 / ratetol=1.0 / qcomp=0.70 / qpmin=0 / qpmax=69 / qpstep=4 / cplxblur=20.0 / qblur=0.5 / ip_ratio=1.40 / pb_ratio=1.30 / aq=1 / aq-strength=0.85 / aq-sensitivity=10.00 / aq-ifactor=1.00 / aq-pfactor=1.00 / aq-bfactor=1.00 / aq2=0- f$ E* U$ z7 v( T' M
Language : Chinese/ Z. x# Z  V7 {0 C1 ?! g! m
Default : Yes/ S6 J) @( A& ]' p5 \* H7 ~, K
Forced : No8 y; w0 i1 h& j8 G1 m" h/ D
Color range : Limited
, N7 [1 A' _0 H  }Matrix coefficients : BT.709
  T1 C; U7 ~! v7 j  C6 @2 i  l  {7 m6 G
Audio
% H9 A0 u, C, f' H! iID : 2" {( m$ G% E1 p
Format : AC-3$ a; u( q5 Q* h+ C
Format/Info : Audio Coding 3
- T2 u) i$ z7 H) qCodec ID : A_AC3& S$ L( p6 W2 K) d
Duration : 1 h 52 min
, x5 H+ f2 R  w7 ?8 B* qBit rate mode : Constant
' q5 B" o" @+ w7 wBit rate : 640 kb/s
3 f+ `# ~, B0 X( Z: e$ VChannel(s) : 6 channels
0 P) e+ [! t4 A/ u4 H. I5 B6 FChannel positions : Front: L C R, Side: L R, LFE4 c$ u( O' {( X$ x. w
Sampling rate : 48.0 kHz+ L, l) R- _9 i2 d6 ^$ o* x# h
Frame rate : 31.250 FPS (1536 SPF)$ l; y: ?0 `' i5 I7 E: h. a- G
Bit depth : 16 bits
9 V4 g5 {: ?* Z% z# r3 MCompression mode : Lossy5 H7 H) ?- L# D  J7 H1 R+ |7 q7 u4 g
Stream size : 513 MiB (9%)
1 k5 l) @  B( ?7 [  jLanguage : Chinese
1 ^/ ~4 m+ i  d9 GService kind : Complete Main
, W3 T1 p; D5 \0 rDefault : Yes  \. k8 W  E3 u7 d# s6 r" w
Forced : No
* B8 f  `: r( b3 ^3 ~
; m: R; S/ t$ p0 E9 aText #1
  Z! d  B- Y5 a5 m) JID : 3
" \2 V/ o. x# @; N* x/ B3 jFormat : UTF-8
5 h8 y! O. A% \) _' h% }Codec ID : S_TEXT/UTF8
( u) H- t2 \7 f8 X! _3 n9 A* ECodec ID/Info : UTF-8 Plain Text
+ Q  a: E: ?+ ]4 h9 Q# Y  H! KDuration : 1 h 47 min
: R! H7 V7 q& a8 N/ K7 H6 ~Bit rate : 39 b/s+ E5 n" I* F3 O! E, P
Count of elements : 1334
" }! w# N, n, f1 y/ k$ X9 {* a* J' N$ hStream size : 30.6 KiB (0%)4 a# d' W7 |2 F3 C1 p
Title : Simplified
5 i, A( U3 E! O* [( G6 gLanguage : Chinese; ]/ ?& T( q. h1 Y# a
Default : Yes
; O: S/ E( q1 H3 a) w& a7 T& w* QForced : No1 Z/ P4 l$ V. R0 i1 R! z/ c( P
) Y" s$ [; n# q0 g% p. d
Text #2( ?1 p' ~* B+ ]; e
ID : 4- \: i, Q4 u7 K3 ~+ x
Format : UTF-83 ~9 M* `/ X- W
Codec ID : S_TEXT/UTF8
. k, y: G, |4 P+ U; ECodec ID/Info : UTF-8 Plain Text' z' @0 w6 p  {: c6 _; [% D
Duration : 1 h 47 min
! S, M0 p3 u8 Y  H2 j; o$ xBit rate : 39 b/s) Z9 O& R+ v) T% g2 a& i7 @
Count of elements : 1334
1 ^; |6 A1 q& y2 X  b* Z- D3 D1 L) ]0 ^Stream size : 30.6 KiB (0%)8 q- j2 \. G( ~, M5 d% A
Title : Traditional, k/ U- Q( k  T
Language : Chinese/ y) e) c  |" D4 m( C
Default : No+ n" k% k; R0 n) U$ j7 Z/ r
Forced : No6 ]9 L) l/ i& g3 x/ h* e# m1 p

1 D/ J' K' o! d9 w/ i: ?' H* O3 }

3 I$ d- j! c+ N4 D6 _# D5 j1 }7 U$ t3 h
, y  |( c! ]3 i* H0 B. U, r' g7 O2 z/ y( \6 J, W
7 M! u, K, d( o9 g% x$ n
7 n6 @- {7 Y- f4 Y, X
6 g7 W; ?9 p, K: K
游客,如果您要查看本帖隐藏内容请回复

本帖子中包含更多资源

您需要 登录 才可以下载或查看,没有帐号?立即注册

x
至尊捕鱼
发表于 2018-4-12 16:37:32 | 显示全部楼层
不错非常的好看啊
回复 支持 反对

使用道具 举报

发表于 2018-4-18 12:02:08 | 显示全部楼层
感谢分享,支持一下
回复 支持 反对

使用道具 举报

发表于 2018-5-1 12:20:03 | 显示全部楼层
很好啊,非常想看看你
回复 支持 反对

使用道具 举报

发表于 2018-5-5 20:33:43 | 显示全部楼层
顶顶顶顶顶顶顶顶顶顶顶顶顶顶顶顶顶顶!
回复 支持 反对

使用道具 举报

发表于 2018-6-24 22:20:44 | 显示全部楼层
辛苦楼主了
回复 支持 反对

使用道具 举报

发表于 2018-6-26 22:54:05 | 显示全部楼层
看看怎么样,谢谢楼主分享!
回复 支持 反对

使用道具 举报

*滑动验证:
您需要登录后才可以回帖 登录 | 立即注册

本版积分规则

QQ|小黑屋|手机版|Archiver|1080P电影网高清下载 - 1080P蓝光影视  

GMT+8, 2018-8-19 19:19 , Processed in 0.118191 second(s), 23 queries .

Powered by Discuz! X3.2

© 2001-2013 Comsenz Inc.

快速回复 返回顶部 返回列表