请选择 进入手机版 | 继续访问电脑版

1080P蓝光影视

 找回密码
 立即注册
查看: 362|回复: 6

[其他] [血观音]The.Bold.the.Corrupt.and.the.Beautiful.2017.720p.BluRay.x264-WiKi 5.4G

[复制链接]
发表于 2018-4-10 16:49:38 | 显示全部楼层 |阅读模式
" `) \: D  d+ L1 |! f% b
◎译  名 血观音/修罗花
: f7 `' B) L6 r0 u& x◎片  名 血觀音% }) |( G: o2 ]% g( d; v. y& [
◎年  代 2017% f+ Y! v2 h$ U, O! c5 S
◎产  地 台湾
  M" C( K2 r! F" C" e◎类  别 剧情/悬疑1 |. c" D  Z& ]1 J7 F/ F) R
◎语  言 汉语普通话/粤语/闽南语/日语# W8 w+ S" A6 `- ~1 E# O
◎上映日期 2017-10-15(釜山电影节)/2017-11-24(台湾)3 n' H" b' v5 i, H: h
◎IMDb评分 7.6/10 from 598 users) U. q# c' x' M" l9 a
◎IMDb链接 http://www.imdb.com/title/tt7479784/
# e8 I- w( T& T$ I9 t& f◎豆瓣评分 7.6/10 from 1,382 users
" R# H' ^% \8 x0 O5 T$ W  v◎蓝光高清   http://www.1080pdy.com! g* p8 i! m. @' |) ?2 Z
◎片  长 112分钟
7 y" E$ M3 z, m# P8 F# }◎导  演 杨雅喆 Ya-che Yang& c2 e( N' W7 }' x" P! m
◎主  演 惠英红 Kara Wai Ying Hung* }8 N, A) O! C6 M; Y
      吴可熙 Wu Ke-Hsi
5 S8 x: r+ `4 k" z* N      文淇 Qi Wen( l! n% }3 ^9 z1 c& {8 v
      陈莎莉 Sally Chan$ e) Q# Q7 m# V7 d% W
      丁强 Chiang Ting4 J/ U% t1 H' `; B
      刘尚谦 Shang-Chien Liu
; E0 t6 T) k$ h5 N) ^      柯佳嬿 Alice Ko
6 m! ?1 V5 ~. P      林志儒 Chih-ju Lin
+ Z* X: G6 a; J; O/ }      王月 Moon Wang
0 l8 P! e. R2 a/ g6 u: {: V      温贞菱 Chuen Wen" Q' D; r3 B2 D1 t$ u, r5 h
      王伟六 Weiliu Wang
& |6 G0 w2 b/ j4 c! \3 a6 K0 }      陈珮骐 Carolyn Chan
4 b% x$ n0 o0 K. v1 S- H- G      尹昭德 Chao-te Yin
6 }. x/ g7 R- l! @0 V      大久保麻梨子 Mariko Okubo
% w) f) k/ U8 \3 r) U      巫书维 Shu Wei Wu
$ T' H$ O7 p- Z, k3 C      颜毓麟 Keennny Yen
: D  E( B4 H6 _; a2 i      刘越逖 Yue-Ti Liu8 T1 |) [# y6 H1 `2 E: V
      傅子纯 Tzu-chun Fu
1 D3 r6 Q# [7 J2 i. k      陈武康 Wu-Kang Chen
* G! w( e* O& Q0 }% k+ |      施名帅 Ming-Shuai Shih
5 v5 g' F- Y2 l2 L$ }% V      秀兰玛雅 Showlen Maya+ d3 t" ]- o: A
      应蔚民 Wei-min Ying
/ C) K2 s, X2 ^, S' x2 E7 [% O      李铨 Peter Li
$ j$ t% n4 |0 a- U0 O0 p( s, g7 V5 {' F* n) h$ e9 s
! K  [/ }1 |; M1 ]
◎简  介; o& A, y9 R1 k6 g  i) @  P/ `& N% F
  《血观音》描述在女人组成的棠府里,住着3位不同世代但一样懂人心的女性,由棠夫人(惠英红饰)主持大局,穿梭权贵间,靠着高超手腕与柔软身段,在复杂的政商关系中生存取利;个性如刺猬般的大女儿棠宁(吴可熙饰)为求母亲肯定,勉力配合;乖巧的小女儿棠真(文淇饰)多半静静观察,唯母命是从。直到某天,棠家亲密友人惨遭灭门事件爆发,三人各自被牵扯其中,一向以大局为重的棠夫人,为了守护一切,费尽心机,却让三人走向不同的命运。0 H3 `$ L( a; S, a. _

# R2 _" D- j# W' N' E9 T  i* K9 c2 D3 s1 l+ I
◎获奖情况) Z' {# m1 ~- l7 M
  第54届台北金马影展 (2017)4 h# s/ K8 R5 @+ |9 V; k
  金马奖 最佳剧情片
0 @' g# \; c# t* A0 R. C2 x! X' b+ o  金马奖 最佳导演(提名) 杨雅喆
+ R  U/ v, X4 T5 J& r  金马奖 最佳女主角 惠英红7 I0 }. {4 s9 `3 V: [9 d
  金马奖 最佳女配角 文淇! R; o1 h0 W) Q" i
  金马奖 最佳原著剧本(提名) 杨雅喆
" }" z% Y  s% }- _) C6 g* z/ [% M  金马奖 最佳美术设计(提名) 蔡珮玲
' L; V" O: e1 c  金马奖 最佳造型设计(提名) 王佳惠
. Y, z2 Z+ g, X1 h. ~8 E4 ~/ w( n/ J8 p$ ^

' w; ^# t$ r' K) [: ^  第37届香港电影金像奖 (2018)+ ?4 S, m" h1 R5 {0 Y& h7 W) i, D
  最佳两岸华语电影(提名): P& Z+ D1 m0 T* c7 s! J

1 ~8 Q" p% s/ M+ A1 u0 Z4 O0 ^! Q  O3 j  i' O9 B
  第4届豆瓣电影年度榜单 (2017)# W0 Y( q! q5 O* x9 P
  年度华语独立佳作(提名); o& B4 X! b2 N8 _( A# @$ T2 P
& l9 _7 |3 U- A9 T" |1 T
1 s$ x. S3 S+ _# q3 E, J
Video) {( |$ ~: S0 O# D6 ~8 d  {1 k
ID : 1
3 G% w' s/ P- _, g" h6 RFormat : AVC
; w. Z, [3 [- ]' iFormat/Info : Advanced Video Codec
' v( \# E# w0 c0 K% x  Y; l6 OFormat profile : High@L4.1
- U$ |4 T7 J0 ]4 J8 C6 D- ^5 ~Format settings : CABAC / 9 Ref Frames
3 e+ j8 P& C1 P" F( i! ?8 ]Format settings, CABAC : Yes
, s% ~/ }* s: h4 xFormat settings, ReFrames : 9 frames' H- ^$ u* Y  Q+ H8 y# Q
Codec ID : V_MPEG4/ISO/AVC
; i4 I0 `. A  }5 }Duration : 1 h 52 min: E. _) i5 K& i! H$ {
Bit rate : 6 340 kb/s
1 b5 }8 x+ Z: O0 aWidth : 1 280 pixels
- X* L, Y7 T0 w2 ~4 [Height : 720 pixels
/ w& W# B6 E* ZDisplay aspect ratio : 16:9
  P, }1 E* {/ r# B# }Frame rate mode : Constant
% w. g  e4 o* J8 e* |4 M* `Frame rate : 24.000 FPS. f0 [6 f& q( I  `# v3 Z: t
Color space : YUV" I4 c; J1 M) C
Chroma subsampling : 4:2:0
% e3 k# `) P* uBit depth : 8 bits. w! w3 s" u& U9 g: ]
Scan type : Progressive  K& f9 P0 w. M6 e
Bits/(Pixel*Frame) : 0.287
2 Y; N1 q! C- t* y: F0 GStream size : 4.96 GiB (91%)
. T* j) ^( O" B  A, k0 zWriting library : x264 core 129 r2245+704+36 8e61944 tMod+MixAQ [8-bit@4:2:0 X86_64]
. s& C! [& G3 M- |- h) ^' VEncoding settings : cabac=1 / ref=9 / deblock=1:-3:-3 / analyse=0x3:0x133 / me=umh / subme=11 / psy=1 / fade_compensate=0.00 / psy_rd=1.05:0.10 / mixed_ref=1 / me_range=32 / chroma_me=1 / trellis=2 / 8x8dct=1 / cqm=0 / deadzone=21,11 / fast_pskip=0 / chroma_qp_offset=-3 / threads=18 / lookahead_threads=3 / sliced_threads=0 / nr=0 / decimate=0 / interlaced=0 / bluray_compat=0 / constrained_intra=0 / fgo=0 / bframes=10 / b_pyramid=2 / b_adapt=2 / b_bias=0 / direct=3 / weightb=1 / open_gop=0 / weightp=2 / keyint=250 / keyint_min=23 / scenecut=40 / intra_refresh=0 / rc=2pass / mbtree=0 / bitrate=6340 / ratetol=1.0 / qcomp=0.70 / qpmin=0 / qpmax=69 / qpstep=4 / cplxblur=20.0 / qblur=0.5 / ip_ratio=1.40 / pb_ratio=1.30 / aq=1 / aq-strength=0.85 / aq-sensitivity=10.00 / aq-ifactor=1.00 / aq-pfactor=1.00 / aq-bfactor=1.00 / aq2=0/ m5 x* I( B6 P  r* _. _" K; t; a8 Q
Language : Chinese
4 Y$ ~2 n% Z, d( h# E/ SDefault : Yes
6 D8 T) I+ d6 E+ A1 iForced : No
+ O+ j2 A' }- ?: y. F, wColor range : Limited+ F3 `, F% B. W7 g0 {2 K8 X
Matrix coefficients : BT.709
% H9 n6 y1 h6 i# M$ u( E( G' \6 H: _4 J/ w7 d
Audio
# R" \) f# @% }! i$ E( C( [& yID : 2! c$ X; F; a& O; R- U
Format : AC-3' q- v& e2 i4 s  V7 S8 h
Format/Info : Audio Coding 3
& p7 v9 t! ?- wCodec ID : A_AC3- Q. U7 p$ n- d
Duration : 1 h 52 min7 @. w. L3 [$ N- Q1 Q2 Y
Bit rate mode : Constant
( A3 e8 ]: w+ I0 L( pBit rate : 640 kb/s
! ^" T& T* X' m) {8 \) iChannel(s) : 6 channels& A! `) t# @9 O+ F0 \3 J+ A
Channel positions : Front: L C R, Side: L R, LFE
% ^4 Q8 e' g& h& z% HSampling rate : 48.0 kHz) W5 A8 `& }' ]2 d
Frame rate : 31.250 FPS (1536 SPF)
% r8 J7 i$ ^. Z$ \  ^' Q+ I: `Bit depth : 16 bits
; q+ ^. W* N( a: \% g8 x, y2 _  MCompression mode : Lossy
  T9 h$ O! `. W( vStream size : 513 MiB (9%)- Z" P+ ]' [* L( j. K
Language : Chinese6 ?4 M6 ^7 D1 E4 J. F7 \
Service kind : Complete Main4 E+ Y( Y6 R5 h! C
Default : Yes
8 ^# D6 g- m, V# q( zForced : No
/ u( C7 ~" X' {$ m
$ ]( D- A$ R5 X% xText #1
* W- t# t, E- @4 C/ W2 XID : 3
4 k; U8 x) J# ]2 t& N+ n4 P1 aFormat : UTF-8
9 l3 p& ^2 F! e' `& c. I8 JCodec ID : S_TEXT/UTF8
6 P" d$ g( A5 a# M6 aCodec ID/Info : UTF-8 Plain Text
8 e+ |5 d! R, a2 |- CDuration : 1 h 47 min
+ d( n( j/ k6 w" {) {% ^1 SBit rate : 39 b/s
( N- m. R" O4 RCount of elements : 13347 z' q$ r: l7 T9 f9 [4 @  M8 h
Stream size : 30.6 KiB (0%)
" g; f3 M. U" q8 v* vTitle : Simplified+ I* U: Z$ g5 m" X
Language : Chinese
* `* T/ I  }, h" l: ]Default : Yes$ i( {2 A" V7 r$ T  ~
Forced : No* K# B& P7 T7 n% ~7 ]

- d8 l5 J2 R7 s8 b# C/ pText #2
, J9 h- ^/ }$ X% C# w0 [# `+ }! bID : 4, j% b/ N: C/ B3 }" G0 [7 ?
Format : UTF-84 F0 s( E3 |! v  j6 z6 t& Z
Codec ID : S_TEXT/UTF8  a% y+ X7 G* p2 w! W
Codec ID/Info : UTF-8 Plain Text
+ q( a; w) Y0 e* \3 \' w! X0 tDuration : 1 h 47 min4 O, _5 F$ Q/ |5 W% f( L9 J( n
Bit rate : 39 b/s& T3 |2 X; e3 ~0 ?/ l
Count of elements : 1334
$ H6 ?% o; B* O- KStream size : 30.6 KiB (0%)
* X3 Z0 J: L2 i4 y" d2 mTitle : Traditional
2 G' ^3 D5 i! l: BLanguage : Chinese8 j/ ^  A5 y) u3 N! q0 n% S
Default : No
6 \- S) f/ B  m# v+ ^& R3 a  w  SForced : No/ I( B2 J3 R) ~( j- i( x- E

) ^6 Y) w  x. \/ u" m

- b7 f! k" w4 V+ P7 g* P2 F8 T# Q& j

( u( I. O1 x; e6 d* j( G( P
* C5 z' E1 s2 v3 K0 p
! a5 V9 n! ?- A' n* [  e; D! D
# |. N2 o) @  J) K
游客,如果您要查看本帖隐藏内容请回复

本帖子中包含更多资源

您需要 登录 才可以下载或查看,没有帐号?立即注册

x
至尊捕鱼
发表于 2018-4-12 16:37:32 | 显示全部楼层
不错非常的好看啊
回复 支持 反对

使用道具 举报

发表于 2018-4-18 12:02:08 | 显示全部楼层
感谢分享,支持一下
回复 支持 反对

使用道具 举报

发表于 2018-5-1 12:20:03 | 显示全部楼层
很好啊,非常想看看你
回复 支持 反对

使用道具 举报

发表于 2018-5-5 20:33:43 | 显示全部楼层
顶顶顶顶顶顶顶顶顶顶顶顶顶顶顶顶顶顶!
回复 支持 反对

使用道具 举报

*滑动验证:
您需要登录后才可以回帖 登录 | 立即注册

本版积分规则

QQ|小黑屋|手机版|Archiver|1080P电影网高清下载 - 1080P蓝光影视  

GMT+8, 2018-5-27 19:59 , Processed in 0.102630 second(s), 25 queries .

Powered by Discuz! X3.2

© 2001-2013 Comsenz Inc.

快速回复 返回顶部 返回列表